<?xml version="1.0" standalone="no"?>
<!DOCTYPE svg PUBLIC "-//W3C//DTD SVG 1.1//EN" "http://www.w3.org/Graphics/SVG/1.1/DTD/svg11.dtd" >
<svg xmlns="http://www.w3.org/2000/svg">
<metadata>Generated by IcoMoon</metadata>
<defs>
<font id="bubbles" horiz-adv-x="1024">
<font-face units-per-em="1024" ascent="960" descent="-64" />
<missing-glyph horiz-adv-x="1024" />
<glyph unicode="&#x20;" horiz-adv-x="512" d="" />
<glyph unicode="&#xe900;" glyph-name="Home" d="M953.92 454.165c-8.128-8.149-21.333-8.149-29.461 0l-190.699 190.677c-1.365 1.088-2.539 2.261-3.627 3.648l-81.707 81.685c-1.365 1.088-2.539 2.261-3.627 3.648l-132.8 132.8-412.437-412.459c-8.128-8.149-21.333-8.149-29.461 0-8.128 8.128-8.128 21.333 0 29.461l424.64 424.64c0.661 1.003 1.131 2.155 2.005 3.072 4.203 4.181 9.749 6.123 15.253 5.995 5.504 0.128 11.051-1.792 15.253-5.995 0.917-0.896 1.323-2.048 2.048-3.072l110.699-110.741v55.872c0 0 0 0 0 0 0 11.776 9.536 21.333 21.333 21.333h85.333c5.909 0 11.243-2.389 15.083-6.251 3.883-3.861 6.251-9.195 6.251-15.083v-183.872l185.92-185.899c8.128-8.128 8.128-21.333 0-29.461zM725.333 832.064h-42.667v-77.205l42.667-42.667v119.872zM213.333 490.731c11.776 0 21.333-9.557 21.333-21.333v-405.333c0-23.573 19.115-42.667 42.667-42.667h128v277.333c0 11.797 9.536 21.333 21.333 21.333h170.667c11.797 0 21.333-9.536 21.333-21.333v-277.333h128c23.573 0 42.667 19.093 42.667 42.667v405.333c0 11.776 9.536 21.333 21.333 21.333s21.333-9.557 21.333-21.333v-405.333c0-47.125-38.208-85.333-85.333-85.333h-469.333c-47.125 0-85.333 38.208-85.333 85.333v405.333c0 11.797 9.557 21.333 21.333 21.333zM576 21.419v256h-128v-256h128z" />
<glyph unicode="&#xe901;" glyph-name="Shop" d="M917.333 42.667h-746.667c-47.125 0-85.333 38.208-85.333 85.333v408.363c-36.757 9.515-64 42.581-64 82.304v63.424c0 0.043 0 0.064 0 0.107v0.469c0 3.349 0.917 6.4 2.283 9.237 0.107 0.192 0.256 0.32 0.363 0.491 1.408 2.709 3.392 4.949 5.781 6.827l145.707 145.685c3.883 4.992 9.707 8.427 16.533 8.427h0.448c0.043 0 0.085 0 0.128 0h127.872c0.043 0 0.085 0 0.128 0h127.872c0.043 0 0.085 0 0.128 0h127.872c0.043 0 0.085 0 0.128 0h127.872c0.043 0 0.085 0 0.128 0h212.757c47.125 0 85.333-38.208 85.333-85.333v0-640c0-47.125-38.208-85.333-85.333-85.333zM320 85.333v0 192h-85.333v-192h85.333zM64 618.667c0-23.552 19.115-42.667 42.667-42.667s42.667 19.115 42.667 42.667v42.667h-85.333v-42.667zM200.128 810.667l-106.667-106.667h69.077l106.667 106.667h-69.077zM192 618.667c0-23.552 19.115-42.667 42.667-42.667s42.667 19.115 42.667 42.667v42.667h-85.333v-42.667zM328.128 810.667l-106.667-106.667h69.077l106.667 106.667h-69.077zM320 618.667c0-23.552 19.115-42.667 42.667-42.667s42.667 19.115 42.667 42.667v42.667h-85.333v-42.667zM456.128 810.667l-106.667-106.667h69.077l106.667 106.667h-69.077zM448 618.667c0-23.552 19.115-42.667 42.667-42.667s42.667 19.115 42.667 42.667v42.667h-85.333v-42.667zM584.128 810.667l-106.667-106.667h69.077l106.667 106.667h-69.077zM682.667 781.205l-106.667-106.667v-55.872c0-47.125-38.208-85.333-85.333-85.333-25.621 0-48.363 11.541-64 29.419-15.637-17.877-38.379-29.419-64-29.419s-48.363 11.541-64 29.419c-15.637-17.877-38.379-29.419-64-29.419-25.664 0-48.384 11.541-64.043 29.461-11.115-12.608-25.792-22.080-42.624-26.432v-408.363c0-23.552 19.115-42.667 42.667-42.667h21.333v213.333c0 11.797 9.536 21.333 21.333 21.333h128c11.797 0 21.333-9.536 21.333-21.333v-213.333h277.333c23.552 0 42.667 19.115 42.667 42.667v653.205zM960 768c0 23.552-19.115 42.667-42.667 42.667h-192v-682.667c0-15.616-4.501-30.080-11.84-42.667h203.84c23.552 0 42.667 19.115 42.667 42.667v640zM597.333 277.333v0h-170.667c-11.797 0-21.333 9.536-21.333 21.333v149.333c0 11.797 9.536 21.333 21.333 21.333h170.667c11.797 0 21.333-9.536 21.333-21.333v-149.333c0-11.797-9.536-21.333-21.333-21.333zM576 426.667h-128v-106.667h128v106.667z" />
<glyph unicode="&#xe902;" glyph-name="Office" d="M128-42.667v576c0 47.125 38.208 85.333 85.333 85.333v0 85.333c0 23.552 19.115 42.667 42.667 42.667h42.667v170.667c0 11.776 9.536 21.333 21.333 21.333s21.333-9.557 21.333-21.333v-170.667h42.667c23.552 0 42.667-19.115 42.667-42.667v-85.333c47.125 0 85.333-38.208 85.333-85.333v-170.667h149.333v128h85.333v64h128v-64h21.333v-533.333h-768zM384 682.667c0 11.776-9.536 21.333-21.333 21.333h-85.333c-11.797 0-21.333-9.557-21.333-21.333v-64h128v64zM469.333 533.333c0 23.552-19.115 42.667-42.667 42.667h-213.333c-23.552 0-42.667-19.115-42.667-42.667v-533.333h298.667v533.333zM661.333 320h-149.333v-320h149.333v320zM853.333 448h-149.333v-448h149.333v448zM768 384h21.333c11.797 0 21.333-9.536 21.333-21.333v-21.333c0-11.797-9.536-21.333-21.333-21.333h-21.333c-11.797 0-21.333 9.536-21.333 21.333v21.333c0 11.797 9.536 21.333 21.333 21.333zM768 256h21.333c11.797 0 21.333-9.536 21.333-21.333v-21.333c0-11.797-9.536-21.333-21.333-21.333h-21.333c-11.797 0-21.333 9.536-21.333 21.333v21.333c0 11.797 9.536 21.333 21.333 21.333zM768 128h21.333c11.797 0 21.333-9.536 21.333-21.333v-21.333c0-11.797-9.536-21.333-21.333-21.333h-21.333c-11.797 0-21.333 9.536-21.333 21.333v21.333c0 11.797 9.536 21.333 21.333 21.333zM576 256h21.333c11.797 0 21.333-9.536 21.333-21.333v-21.333c0-11.797-9.536-21.333-21.333-21.333h-21.333c-11.797 0-21.333 9.536-21.333 21.333v21.333c0 11.797 9.536 21.333 21.333 21.333zM576 128h21.333c11.797 0 21.333-9.536 21.333-21.333v-21.333c0-11.797-9.536-21.333-21.333-21.333h-21.333c-11.797 0-21.333 9.536-21.333 21.333v21.333c0 11.797 9.536 21.333 21.333 21.333zM384 64h-21.333c-11.797 0-21.333 9.536-21.333 21.333v21.333c0 11.776 9.536 21.333 21.333 21.333h21.333c11.797 0 21.333-9.557 21.333-21.333v-21.333c0-11.797-9.536-21.333-21.333-21.333zM384 192h-21.333c-11.797 0-21.333 9.536-21.333 21.333v21.333c0 11.776 9.536 21.333 21.333 21.333h21.333c11.797 0 21.333-9.557 21.333-21.333v-21.333c0-11.797-9.536-21.333-21.333-21.333zM384 320h-21.333c-11.797 0-21.333 9.536-21.333 21.333v21.333c0 11.776 9.536 21.333 21.333 21.333h21.333c11.797 0 21.333-9.557 21.333-21.333v-21.333c0-11.797-9.536-21.333-21.333-21.333zM384 448h-21.333c-11.797 0-21.333 9.536-21.333 21.333v21.333c0 11.776 9.536 21.333 21.333 21.333h21.333c11.797 0 21.333-9.557 21.333-21.333v-21.333c0-11.797-9.536-21.333-21.333-21.333zM277.333 64h-21.333c-11.797 0-21.333 9.536-21.333 21.333v21.333c0 11.797 9.536 21.333 21.333 21.333h21.333c11.797 0 21.333-9.536 21.333-21.333v-21.333c0-11.797-9.536-21.333-21.333-21.333zM277.333 192h-21.333c-11.797 0-21.333 9.536-21.333 21.333v21.333c0 11.797 9.536 21.333 21.333 21.333h21.333c11.797 0 21.333-9.536 21.333-21.333v-21.333c0-11.797-9.536-21.333-21.333-21.333zM277.333 320h-21.333c-11.797 0-21.333 9.536-21.333 21.333v21.333c0 11.776 9.536 21.333 21.333 21.333h21.333c11.797 0 21.333-9.557 21.333-21.333v-21.333c0-11.797-9.536-21.333-21.333-21.333zM277.333 448h-21.333c-11.797 0-21.333 9.536-21.333 21.333v21.333c0 11.776 9.536 21.333 21.333 21.333h21.333c11.797 0 21.333-9.557 21.333-21.333v-21.333c0-11.797-9.536-21.333-21.333-21.333z" />
<glyph unicode="&#xe903;" glyph-name="Bank" d="M981.333 11.989h-938.667c-11.797 0-21.333 9.536-21.333 21.333s9.536 21.333 21.333 21.333h938.667c11.797 0 21.333-9.536 21.333-21.333s-9.536-21.333-21.333-21.333zM341.333 225.323c11.797 0 21.333-9.536 21.333-21.333s-9.536-21.333-21.333-21.333h-170.667c-11.797 0-21.333 9.536-21.333 21.333s9.536 21.333 21.333 21.333h21.333v277.333h-21.333c-11.797 0-21.333 9.536-21.333 21.333 0 11.776 9.536 21.333 21.333 21.333h170.667c11.797 0 21.333-9.557 21.333-21.333 0-11.797-9.536-21.333-21.333-21.333h-21.333v-277.333h21.333zM277.333 502.656h-42.667v-277.333h42.667v277.333zM597.333 225.323c11.797 0 21.333-9.536 21.333-21.333s-9.536-21.333-21.333-21.333h-170.667c-11.797 0-21.333 9.536-21.333 21.333s9.536 21.333 21.333 21.333h21.333v277.333h-21.333c-11.797 0-21.333 9.536-21.333 21.333 0 11.776 9.536 21.333 21.333 21.333h170.667c11.797 0 21.333-9.557 21.333-21.333 0-11.797-9.536-21.333-21.333-21.333h-21.333v-277.333h21.333zM533.333 502.656h-42.667v-277.333h42.667v277.333zM938.667 118.656c0-11.797-9.536-21.333-21.333-21.333h-810.667c-11.797 0-21.333 9.536-21.333 21.333s9.536 21.333 21.333 21.333h810.667c11.797 0 21.333-9.536 21.333-21.333zM853.333 225.323c11.797 0 21.333-9.536 21.333-21.333s-9.536-21.333-21.333-21.333h-170.667c-11.797 0-21.333 9.536-21.333 21.333s9.536 21.333 21.333 21.333h21.333v277.333h-21.333c-11.797 0-21.333 9.536-21.333 21.333 0 11.776 9.536 21.333 21.333 21.333h170.667c11.797 0 21.333-9.557 21.333-21.333 0-11.797-9.536-21.333-21.333-21.333h-21.333v-277.333h21.333zM789.333 502.656h-42.667v-277.333h42.667v277.333zM64 630.656l448 244.011 448-244.011v-42.667h-896v42.667zM864.875 630.656l-352.875 182.443-354.219-182.443h707.093z" />
<glyph unicode="&#xe904;" glyph-name="Tag" d="M951.509 452.8l-486.315-486.315c-0.683-1.024-1.131-2.176-2.027-3.072-4.203-4.181-9.749-6.123-15.253-5.995-5.504-0.128-11.051 1.813-15.253 5.995-0.896 0.896-1.323 2.048-2.027 3.072l-357.568 357.568c-1.024 0.683-2.155 1.131-3.072 2.027-4.203 4.203-6.101 9.749-5.995 15.253-0.128 5.504 1.792 11.051 5.995 15.253 0.917 0.896 2.048 1.323 3.072 2.027l486.315 486.293c3.904 5.013 9.707 8.427 16.533 8.427h0.448c0.043 0 0.085 0 0.128 0h85.952c2.837 32.043 15.915 60.16 35.627 78.571l0.341-0.384c4.181 4.416 9.877 7.147 16.171 7.147 12.629 0 22.869-10.923 22.869-24.384 0-8-3.84-14.741-9.408-19.179-10.219-9.429-17.493-24.299-19.925-41.771h101.867c0.043 0 0.085 0 0.171 0h0.427c6.827 0 12.672-3.413 16.533-8.427l124.373-124.373c4.992-3.904 8.427-9.728 8.427-16.555v-0.448c0-0.043 0-0.085 0-0.128v-233.493c0-0.043 0-0.085 0-0.149v-0.427c0-6.827-3.413-12.651-8.405-16.533zM730.752 604.459c-4.117-4.395-9.835-7.125-16.171-7.125-12.629 0-22.827 10.923-22.827 24.384 0 8 3.84 14.741 9.408 19.2 5.291 4.885 9.621 11.456 13.163 18.837-18.24-4.864-31.744-21.333-31.744-41.067 0-23.552 19.115-42.667 42.667-42.667 23.573 0 42.667 19.115 42.667 42.667 0 10.091-3.627 19.221-9.493 26.539-13.12-33.003-27.669-40.768-27.669-40.768zM917.248 695.872l-114.795 114.795h-89.877c3.712-9.472 9.045-17.536 15.467-23.467v0c0.875-0.704 1.963-1.131 2.709-1.963l0.384 0.384c22.208-20.757 36.8-53.504 36.8-90.752 0-0.896-0.213-1.685-0.256-2.56 25.536-14.741 42.923-42.027 42.923-73.643 0-47.125-38.208-85.333-85.333-85.333s-85.333 38.208-85.333 85.333c0 45.803 36.16 82.88 81.493 84.949-1.92 18.944-9.408 35.157-20.245 45.184-0.875 0.704-1.963 1.131-2.752 1.963l-0.341-0.384c-15.872 14.827-27.584 35.947-33.131 60.288h-80.917l-469.333-469.333 333.205-333.205 469.333 469.333v218.411zM304.683 377.92c8.149 8.128 21.333 8.128 29.461 0l150.379-150.379c8.128-8.128 8.128-21.312 0-29.461-8.128-8.128-21.333-8.128-29.461 0l-150.379 150.379c-8.128 8.128-8.128 21.312 0 29.461zM390.016 463.253c8.149 8.128 21.333 8.128 29.461 0l150.357-150.379c8.128-8.128 8.128-21.312 0-29.461-8.128-8.128-21.333-8.128-29.461 0l-150.357 150.379c-8.128 8.128-8.128 21.312 0 29.461z" />
<glyph unicode="&#xe905;" glyph-name="Tags" d="M1002.581 427.029v-0.448c0-6.827-3.413-12.651-8.427-16.555l-404.032-404.032c-8.128-8.128-21.291-8.128-29.461 0-8.128 8.149-8.128 21.333 0 29.461l399.253 399.253v141.205c0 11.776 9.579 21.333 21.333 21.333 11.797 0 21.333-9.557 21.333-21.333v-148.757c0-0.043 0-0.064 0-0.128zM422.528-33.6c-0.683-1.024-1.131-2.176-2.027-3.072-4.203-4.181-9.749-6.123-15.253-5.995-5.504-0.128-11.051 1.813-15.253 5.995-0.896 0.896-1.323 2.048-2.027 3.072l-357.568 357.589c-1.024 0.683-2.155 1.131-3.072 2.027-4.203 4.203-6.101 9.728-5.995 15.232-0.128 5.504 1.792 11.051 5.995 15.253 0.917 0.896 2.048 1.323 3.072 2.027l486.315 486.315c3.904 4.992 9.707 8.427 16.533 8.427h0.448c0.043 0 0.085 0 0.128 0h85.952c2.837 32.043 15.915 60.16 35.627 78.571l0.341-0.384c4.16 4.416 9.877 7.147 16.171 7.147 12.629 0 22.869-10.923 22.869-24.384 0-8-3.84-14.741-9.408-19.179-10.219-9.429-17.493-24.299-19.925-41.771h101.867c0.043 0 0.085 0 0.171 0h0.427c6.827 0 12.672-3.413 16.533-8.427l124.373-124.373c4.992-3.904 8.427-9.728 8.427-16.555v-0.448c0-0.043 0-0.085 0-0.128v-233.493c0-0.043 0-0.085 0-0.149v-0.448c0-6.827-3.413-12.651-8.427-16.533l-486.293-486.315zM874.581 695.787l-114.795 114.795h-89.877c3.755-9.472 9.045-17.536 15.467-23.467v0c0.875-0.704 1.963-1.131 2.709-1.963l0.384 0.384c22.208-20.757 36.8-53.504 36.8-90.752 0-0.896-0.213-1.685-0.256-2.56 25.536-14.741 42.923-42.027 42.923-73.643 0-47.125-38.208-85.333-85.333-85.333s-85.333 38.208-85.333 85.333c0 45.803 36.16 82.88 81.493 84.949-1.92 18.944-9.408 35.157-20.245 45.184-0.875 0.704-1.963 1.131-2.752 1.963l-0.341-0.384c-15.872 14.827-27.584 35.947-33.131 60.288h-80.917l-469.333-469.333 333.205-333.205 469.333 469.333v218.411zM658.496 640.832c5.291 4.885 9.621 11.456 13.163 18.837-18.24-4.864-31.744-21.333-31.744-41.067 0-23.552 19.115-42.667 42.667-42.667 23.573 0 42.667 19.115 42.667 42.667 0 10.091-3.627 19.221-9.493 26.539-13.12-32.96-27.669-40.725-27.669-40.725-4.117-4.416-9.835-7.125-16.171-7.125-12.629 0-22.827 10.923-22.827 24.384 0 7.957 3.819 14.699 9.408 19.157zM262.016 377.835c8.149 8.128 21.333 8.128 29.461 0l150.379-150.379c8.128-8.128 8.128-21.312 0-29.461-8.128-8.128-21.333-8.128-29.461 0l-150.379 150.379c-8.128 8.128-8.128 21.312 0 29.461zM347.349 463.168c8.149 8.128 21.333 8.128 29.461 0l150.379-150.379c8.107-8.128 8.107-21.312 0-29.461-8.128-8.128-21.333-8.128-29.461 0l-150.379 150.379c-8.128 8.128-8.128 21.312 0 29.461z" />
<glyph unicode="&#xe906;" glyph-name="Wallet" d="M1002.667 106.667v0c0-58.923-47.744-106.667-106.667-106.667v0h-768c-58.923 0-106.667 47.744-106.667 106.667v618.667c0 47.125 38.208 85.333 85.333 85.333v0h430.315l172.779 62.592c10.944 3.989 23.061-1.664 27.051-12.565l18.197-50.027h76.992c47.125 0 85.333-38.208 85.333-85.333v-42.667c47.125 0 85.333-38.208 85.333-85.333v-490.667zM106.667 768v0c-23.552 0-42.667-19.115-42.667-42.667s19.115-42.667 42.667-42.667h77.525c0.277 0.107 0.448 0.341 0.725 0.448l234.283 84.885h-312.533zM726.997 764.139l-22.656 62.379h-0.021l-397.035-143.851h449.323l-29.611 81.472zM874.667 725.333c0 23.552-19.115 42.667-42.667 42.667h-61.504l31.019-85.333h73.152v42.667zM917.333 640h-810.667c-15.616 0-30.080 4.501-42.667 11.84v-545.173c0-35.349 28.672-64 64-64h768c35.349 0 64 28.651 64 64v149.333h-85.333c-47.125 0-85.333 38.208-85.333 85.333s38.208 85.333 85.333 85.333h85.333v170.667c0 23.552-19.115 42.667-42.667 42.667zM960 298.667v85.333h-85.333c-23.552 0-42.667-19.115-42.667-42.667s19.115-42.667 42.667-42.667h85.333zM874.667 362.667h42.667v-42.667h-42.667v42.667z" />
<glyph unicode="&#xe907;" glyph-name="Credit-Card" d="M917.333 106.667h-810.667c-47.125 0-85.333 38.208-85.333 85.333v512c0 47.125 38.208 85.333 85.333 85.333h810.667c47.125 0 85.333-38.208 85.333-85.333v-512c0-47.125-38.208-85.333-85.333-85.333zM64 512h896v85.333h-896v-85.333zM960 704c0 23.552-19.115 42.667-42.667 42.667h-810.667c-23.552 0-42.667-19.115-42.667-42.667v-64h896v64zM960 469.333h-896v-277.333c0-23.552 19.115-42.667 42.667-42.667h810.667c23.552 0 42.667 19.115 42.667 42.667v277.333zM554.667 341.333h-85.333c-11.797 0-21.333 9.536-21.333 21.333 0 11.776 9.536 21.333 21.333 21.333h85.333c11.797 0 21.333-9.557 21.333-21.333 0-11.797-9.536-21.333-21.333-21.333zM362.667 341.333h-192c-11.797 0-21.333 9.536-21.333 21.333 0 11.776 9.536 21.333 21.333 21.333h192c11.797 0 21.333-9.557 21.333-21.333 0-11.797-9.536-21.333-21.333-21.333zM170.667 277.333h128c11.797 0 21.333-9.557 21.333-21.333 0-11.797-9.536-21.333-21.333-21.333h-128c-11.797 0-21.333 9.536-21.333 21.333 0 11.776 9.536 21.333 21.333 21.333z" />
<glyph unicode="&#xe908;" glyph-name="Handbag" d="M917.333-21.333h-810.667c-47.125 0-85.333 38.208-85.333 85.333l85.333 512c14.464 73.429 56.917 85.333 104.043 85.333h56.576c32.171 148.224 129.557 256 244.715 256s212.544-107.776 244.715-256h56.576c47.125 0 89.579-11.904 104.043-85.333l85.333-512c0-47.125-38.208-85.333-85.333-85.333zM512 874.667c-92.843 0-171.627-89.131-200.917-213.333h401.856c-29.312 124.203-108.075 213.333-200.939 213.333zM874.667 576c-6.571 28.821-20.416 42.667-50.56 42.667h-60.331c2.624-20.821 4.224-42.133 4.224-64 0-11.776-9.536-21.333-21.333-21.333s-21.333 9.557-21.333 21.333c0 21.909-1.472 43.328-4.288 64h-418.091c-2.795-20.672-4.288-42.091-4.288-64 0-11.776-9.536-21.333-21.333-21.333s-21.333 9.557-21.333 21.333c0 21.867 1.6 43.179 4.203 64h-60.331c-30.123 0-43.947-13.845-50.539-42.667l-85.333-512c0-23.552 19.115-42.667 42.667-42.667h810.667c23.552 0 42.667 19.115 42.667 42.667l-85.333 512z" />
<glyph unicode="&#xe909;" glyph-name="Folder" d="M896 42.667v0h-768c-58.923 0-106.667 47.744-106.667 106.667v490.667c0 11.776 9.536 21.333 21.333 21.333v0h64v106.667c0 47.125 38.208 85.333 85.333 85.333h213.333c47.125 0 85.333-38.208 85.333-85.333v-21.333h490.667c11.797 0 21.333-9.557 21.333-21.333v-576c0-58.923-47.744-106.667-106.667-106.667zM64 618.667v-469.333c0-35.349 28.672-64 64-64h683.136c-13.483 17.877-21.803 39.872-21.803 64v469.333h-725.333zM960 704h-512v64c0 23.552-19.115 42.667-42.667 42.667h-213.333c-23.552 0-42.667-19.115-42.667-42.667v-106.667h661.333c5.931 0 11.285-2.432 15.147-6.357 3.819-3.861 6.187-9.131 6.187-14.976 0 0 0 0 0 0v-490.667c0-35.349 28.651-64 64-64s64 28.651 64 64v554.667z" />
<glyph unicode="&#xe90a;" glyph-name="Notebook" d="M874.667-21.333v0c0-11.797-9.536-21.333-21.333-21.333h-597.333c-58.923 0-106.667 47.744-106.667 106.667v768c0 58.901 47.744 106.667 106.667 106.667v0h554.667c8.832 0 16.427-5.376 19.669-13.035 1.067-2.539 1.664-5.355 1.664-8.299v0-149.333h21.333c5.931 0 11.285-2.453 15.168-6.357 3.797-3.861 6.165-9.131 6.165-14.976 0 0 0 0 0 0v-768zM192 64v0 0c0-35.349 28.672-64 64-64h64v725.333h-64c-24.128 0-46.123 8.32-64 21.803v-683.136zM789.333 768v128h-533.333c-35.328 0-64-28.651-64-64s28.672-64 64-64h533.333zM832 725.333h-469.333v-725.333h469.333v725.333zM256 810.667c-11.797 0-21.333 9.557-21.333 21.333s9.536 21.333 21.333 21.333h469.333c11.797 0 21.333-9.557 21.333-21.333s-9.536-21.333-21.333-21.333h-469.333z" />
<glyph unicode="&#xe90b;" glyph-name="File" d="M789.333-42.667h-554.667c-47.125 0-85.333 38.208-85.333 85.333v810.667c0 47.125 38.208 85.333 85.333 85.333h404.757c0.043 0 0.107 0 0.149 0h0.427c6.827 0 12.651-3.435 16.555-8.427l209.685-209.685c5.013-3.904 8.427-9.728 8.427-16.555v0-0.448c0-0.043 0-0.064 0-0.107v-660.779c0-47.125-38.208-85.333-85.333-85.333zM661.333 866.539v-141.205h141.205l-141.205 141.205zM832 682.667h-192c-11.797 0-21.333 9.557-21.333 21.333v192h-384c-23.552 0-42.667-19.115-42.667-42.667v-810.667c0-23.552 19.115-42.667 42.667-42.667h554.667c23.552 0 42.667 19.115 42.667 42.667v640zM704 128h-384c-11.797 0-21.333 9.536-21.333 21.333 0 11.776 9.536 21.333 21.333 21.333h384c11.797 0 21.333-9.557 21.333-21.333 0-11.797-9.536-21.333-21.333-21.333zM704 298.667h-384c-11.797 0-21.333 9.536-21.333 21.333 0 11.776 9.536 21.333 21.333 21.333h384c11.797 0 21.333-9.557 21.333-21.333 0-11.797-9.536-21.333-21.333-21.333zM704 469.333h-384c-11.797 0-21.333 9.536-21.333 21.333 0 11.776 9.536 21.333 21.333 21.333h384c11.797 0 21.333-9.557 21.333-21.333 0-11.797-9.536-21.333-21.333-21.333z" />
<glyph unicode="&#xe90c;" glyph-name="Clipboard" d="M789.333-42.667h-554.667c-47.125 0-85.333 38.208-85.333 85.333v746.667c0 47.125 38.208 85.333 85.333 85.333h64c11.797 0 21.333-9.557 21.333-21.333s-9.536-21.333-21.333-21.333v0h-64c-23.552 0-42.667-19.115-42.667-42.667v-746.667c0-23.552 19.115-42.667 42.667-42.667h554.667c23.552 0 42.667 19.115 42.667 42.667v746.667c0 23.552-19.115 42.667-42.667 42.667h-64c-11.797 0-21.333 9.557-21.333 21.333s9.536 21.333 21.333 21.333c0 0 0 0 0.021 0h63.979c47.125 0 85.333-38.208 85.333-85.333v-746.667c0-47.125-38.208-85.333-85.333-85.333zM746.667 768c0-11.776-9.536-21.333-21.333-21.333h-426.667c-11.797 0-21.333 9.557-21.333 21.333s9.536 21.333 21.333 21.333c0 0 24 2.667 42.667 21.333l42.667 42.667c0 0 16.661 21.333 42.667 21.333h21.333c0 35.349 28.672 64 64 64 35.349 0 64-28.651 64-64h21.333c27.989 0 42.667-21.333 42.667-21.333l42.667-42.667c18.667-18.667 42.667-21.333 42.667-21.333 11.797 0 21.333-9.557 21.333-21.333zM512 896c-11.797 0-21.333-9.557-21.333-21.333h42.667c0 11.776-9.536 21.333-21.333 21.333zM626.411 810.667c0 0-14.485 21.333-38.763 21.333h-151.275c-24.32 0-38.784-21.333-38.784-21.333l-19.392-21.333h267.627l-19.413 21.333z" />
<glyph unicode="&#xe90d;" glyph-name="News" d="M874.667-42.667v0h-725.333c-58.923 0-106.667 47.744-106.667 106.667v853.333c0 11.776 9.536 21.333 21.333 21.333v0h725.333c8.832 0 16.427-5.376 19.669-13.035 1.067-2.539 1.664-5.355 1.664-8.299v0-298.667h149.333c11.797 0 21.333-9.557 21.333-21.333v-533.333c0-58.923-47.744-106.667-106.667-106.667zM768 64v832h-682.667v-832c0-35.349 28.672-64 64-64h640.469c-13.483 17.877-21.803 39.872-21.803 64zM938.667 576h-128v-512c0-35.349 28.651-64 64-64s64 28.651 64 64v512zM149.333 106.667c0 11.776 9.536 21.333 21.333 21.333h192c11.797 0 21.333-9.557 21.333-21.333 0-11.797-9.536-21.333-21.333-21.333h-192c-11.797 0-21.333 9.536-21.333 21.333zM248.875 454.080c-8.128-8.128-21.312-8.128-29.461 0-8.128 8.128-8.128 21.333 0 29.461l125.973 125.973c0.683 1.003 1.131 2.155 2.027 3.051 4.203 4.203 9.749 6.144 15.253 6.016 5.504 0.128 11.051-1.792 15.253-6.016 0.896-0.896 1.323-2.048 2.027-3.051l89.387-89.387 46.72 46.72c0.683 1.003 1.131 2.155 2.027 3.051 4.203 4.203 9.749 6.144 15.253 5.995 5.504 0.149 11.051-1.792 15.253-5.995 0.896-0.896 1.323-2.048 2.027-3.051l83.307-83.307c8.128-8.128 8.128-21.333 0-29.461-8.149-8.128-21.333-8.128-29.461 0l-71.125 71.125-34.539-34.539 7.125-7.125c8.128-8.128 8.128-21.333 0-29.461s-21.333-8.128-29.461 0l-113.792 113.792-113.792-113.792zM490.667 341.333h192c11.797 0 21.333-9.557 21.333-21.333 0-11.797-9.536-21.333-21.333-21.333h-192c-11.797 0-21.333 9.536-21.333 21.333 0 11.776 9.536 21.333 21.333 21.333zM490.667 234.667h192c11.797 0 21.333-9.557 21.333-21.333 0-11.797-9.536-21.333-21.333-21.333h-192c-11.797 0-21.333 9.536-21.333 21.333 0 11.776 9.536 21.333 21.333 21.333zM490.667 128h192c11.797 0 21.333-9.557 21.333-21.333 0-11.797-9.536-21.333-21.333-21.333h-192c-11.797 0-21.333 9.536-21.333 21.333 0 11.776 9.536 21.333 21.333 21.333zM512 629.333c0-17.685-14.336-32-32-32s-32 14.315-32 32 14.336 32 32 32 32-14.315 32-32zM576 746.667h-298.667c-11.797 0-21.333 9.557-21.333 21.333s9.536 21.333 21.333 21.333h298.667c11.797 0 21.333-9.557 21.333-21.333s-9.536-21.333-21.333-21.333zM170.667 234.667h192c11.797 0 21.333-9.557 21.333-21.333 0-11.797-9.536-21.333-21.333-21.333h-192c-11.797 0-21.333 9.536-21.333 21.333 0 11.776 9.536 21.333 21.333 21.333zM384 320c0-11.797-9.536-21.333-21.333-21.333h-192c-11.797 0-21.333 9.536-21.333 21.333 0 11.776 9.536 21.333 21.333 21.333h192c11.797 0 21.333-9.557 21.333-21.333z" />
<glyph unicode="&#xe90e;" glyph-name="Pencil" d="M958.485 652.992c-0.981-2.112-2.176-4.139-3.904-5.888l-595.328-595.307c-2.325-4.011-5.547-7.509-10.133-9.259l-295.509-82.773c-0.619-0.299-1.323-0.341-2.005-0.555l-1.003-0.299c-0.171-0.064-0.363-0.021-0.512-0.085-2.005-0.533-3.989-0.981-6.101-0.96-2.091-0.064-4.032 0.32-6.016 0.875-0.448 0.128-0.853 0.043-1.301 0.192-0.171 0.064-0.277 0.213-0.448 0.277-1.877 0.704-3.499 1.771-5.12 3.008-0.832 0.597-1.707 1.131-2.411 1.835s-1.237 1.579-1.835 2.411c-1.237 1.6-2.283 3.243-3.008 5.12-0.085 0.171-0.213 0.277-0.277 0.448-0.149 0.427-0.064 0.853-0.192 1.301-0.533 1.963-0.917 3.925-0.875 5.995 0 2.133 0.427 4.117 0.96 6.123 0.085 0.171 0.021 0.341 0.085 0.491l0.299 1.045c0.235 0.64 0.277 1.344 0.555 1.984l82.773 295.509c1.749 4.608 5.248 7.765 9.259 10.133l586.219 586.24c0.853 0.96 1.856 1.771 2.731 2.709l6.379 6.379c0.32 0.32 0.725 0.427 1.067 0.725 30.805 29.44 72.149 48 118.165 48 94.805 0 171.669-76.864 171.669-171.669 0-43.968-16.96-83.669-44.181-114.005zM877.867 629.333l-77.205 77.205-504.32-504.341c0.085-0.171 0.299-0.235 0.384-0.405l50.624-102.976 530.517 530.517zM75.925 11.243l59.413 16.619-42.795 42.773-16.619-59.392zM105.451 116.693l75.904-75.925 130.56 36.587c0 0-55.168 114.603-55.253 114.645l-114.645 55.253-36.565-130.56zM266.453 232.021c0.171-0.085 0.235-0.277 0.405-0.384l504.341 504.363-77.205 77.205-530.517-530.517 102.976-50.667zM830.336 896c-38.016 0-71.936-16.555-95.765-42.539l-0.149 0.149-10.965-10.944 183.872-183.872 11.243 11.264-0.128 0.128c25.792 23.808 42.219 57.621 42.219 95.488 0 71.979-58.347 130.325-130.325 130.325z" />
<glyph unicode="&#xe90f;" glyph-name="Pen" d="M1002.667 852.8c0.128-5.504-1.813-11.051-5.995-15.253-0.917-0.896-2.048-1.323-3.072-2.027l-57.387-57.387 14.72-14.72c1.024-0.704 2.176-1.131 3.072-2.027 4.181-4.203 6.123-9.749 5.995-15.232 0.128-5.504-1.813-11.051-5.995-15.253-0.896-0.896-2.048-1.323-3.072-2.027l-676.565-676.608c-2.368-4.544-6.123-8.363-11.157-10.261l-209.067-82.005c-1.237-0.661-2.496-1.088-3.861-1.515l-0.256-0.107c-0.171-0.064-0.363-0.021-0.512-0.085-1.984-0.533-3.968-0.981-6.101-0.96-2.091-0.064-4.032 0.32-6.037 0.875-0.427 0.128-0.832 0.043-1.28 0.192-0.171 0.064-0.277 0.213-0.448 0.277-1.877 0.704-3.499 1.771-5.12 3.008-0.832 0.597-1.707 1.131-2.411 1.835s-1.237 1.579-1.835 2.411c-1.237 1.6-2.283 3.243-3.008 5.12-0.085 0.171-0.213 0.277-0.277 0.448-0.149 0.427-0.064 0.853-0.192 1.301-0.533 1.963-0.917 3.925-0.875 5.995 0 2.133 0.427 4.117 0.96 6.123 0.085 0.171 0.021 0.341 0.085 0.491l0.128 0.277c0.427 1.344 0.832 2.624 1.493 3.861l82.005 209.067c1.92 5.035 5.739 8.789 10.283 11.157l592.277 592.235c-5.632 17.792-22.080 30.784-41.749 30.784-12.992 0-24.555-5.739-32.597-14.699l-0.064 0.043-69.333-69.333 0.064-0.064-145.856-145.856c-8.128-8.128-21.312-8.128-29.461 0-8.128 8.128-8.128 21.333 0 29.461l214.379 214.357c0.363 0.363 0.811 0.469 1.195 0.789 15.552 16.341 37.355 26.645 61.696 26.645 30.933 0 57.579-16.725 72.448-41.429l53.632 53.611c0.704 1.003 1.131 2.155 2.027 3.051 4.203 4.203 9.749 6.144 15.253 5.995 5.504 0.149 11.051-1.792 15.253-5.995 0.896-0.896 1.323-2.048 2.027-3.051l14.72-14.72 57.387 57.387c0.704 1.003 1.131 2.155 2.027 3.051 4.203 4.203 9.749 6.144 15.253 5.995 5.504 0.149 11.051-1.792 15.253-5.995 0.896-0.896 1.323-2.048 2.027-3.051l58.923-58.923c1.024-0.704 2.155-1.131 3.072-2.027 4.117-4.203 6.059-9.749 5.931-15.232zM82.667 18.027l136.021 53.376-82.667 82.667-53.355-136.043zM810.752 844.672l-653.205-653.205 98.539-98.539 653.205 653.205-98.539 98.539zM917.419 887.339l-45.205-45.205 34.539-34.539 45.205 45.205-34.539 34.539z" />
<glyph unicode="&#xe910;" glyph-name="Brush" d="M990.784 816.661c-126.656-188.309-508.16-569.195-508.16-569.195l-0.149 0.149c-0.896-0.981-1.707-2.005-2.667-2.965-23.979-23.936-56.512-33.621-87.765-29.931 10.048-42.069-0.555-88.256-32.619-121.131 0 0-160.427-198.379-338.219-73.387 0 0 95.872 26.859 104.213 104.213 0 0-12.8 77.952 57.579 150.187 31.552 32.384 75.691 43.499 116.16 34.048-3.243 30.805 6.464 62.72 30.101 86.336 0.939 0.96 1.984 1.771 2.965 2.688l-0.149 0.149c0 0 381.269 381.099 569.856 507.584 24.96 17.856 59.819 15.765 82.219-6.613 22.464-22.421 24.533-57.216 6.635-82.133zM329.728 245.632c-15.829 15.829-36.352 24.853-58.304 24.853-22.037 0-42.859-8.875-58.539-24.981-54.080-55.509-45.973-119.125-45.76-121.109-4.651-43.093-29.077-79.808-54.549-101.888 9.003-1.643 18.112-2.475 27.413-2.475 101.333 0 186.709 99.413 187.499 100.352 0.021 0 58.432 69.035 2.24 125.248zM341.205 319.829c0-16.981 6.165-32.981 18.219-44.992 12.053-12.032 28.757-19.008 45.781-19.008s32.405 6.955 44.075 18.645l33.152 33.493c1.685 1.728 3.989 4.075 5.845 5.973l-89.536 89.536c-1.963-1.899-4.373-4.224-6.123-5.952l-33.216-32.789c-12.032-11.989-18.197-27.925-18.197-44.907zM954.027 868.565c-5.312 5.312-11.52 6.101-14.784 6.101-4.523 0-8.832-1.365-13.547-4.736-132.651-88.96-383.979-327.829-497.088-437.397l88.725-88.725c109.653 112.981 349.099 364.437 438.784 497.749 6.059 8.405 5.184 19.776-2.091 27.008z" />
<glyph unicode="&#xe911;" glyph-name="Pictures-Day" d="M917.333 85.333h-810.667c-47.125 0-85.333 38.208-85.333 85.333v554.667c0 47.125 38.208 85.333 85.333 85.333h810.667c47.125 0 85.333-38.208 85.333-85.333v-554.667c0-47.125-38.208-85.333-85.333-85.333zM960 725.333c0 23.552-19.115 42.667-42.667 42.667h-810.667c-23.552 0-42.667-19.115-42.667-42.667v-554.667c0-23.552 19.115-42.667 42.667-42.667h810.667c23.552 0 42.667 19.115 42.667 42.667v554.667zM881.792 219.413l-135.125 135.125-77.205-77.205 71.125-71.125c8.128-8.128 8.128-21.312 0-29.461-8.149-8.128-21.333-8.128-29.461 0l-305.792 305.792-263.125-263.125c-8.128-8.128-21.312-8.128-29.461 0-8.128 8.149-8.128 21.333 0 29.461l275.307 275.307c0.683 1.024 1.131 2.155 2.027 3.072 4.203 4.203 9.749 6.123 15.253 5.995 5.504 0.128 11.051-1.792 15.253-5.995 0.896-0.917 1.323-2.048 2.027-3.072l217.387-217.387 89.387 89.387c0.704 1.003 1.131 2.155 2.027 3.072 4.203 4.181 9.749 6.123 15.253 5.995 5.504 0.128 11.051-1.813 15.253-5.995 0.896-0.917 1.323-2.069 2.027-3.072l147.307-147.307c8.128-8.128 8.128-21.312 0-29.461-8.149-8.128-21.333-8.128-29.461 0zM618.667 554.667c-47.125 0-85.333 38.208-85.333 85.333s38.208 85.333 85.333 85.333 85.333-38.208 85.333-85.333-38.208-85.333-85.333-85.333zM618.667 682.667c-23.552 0-42.667-19.115-42.667-42.667s19.115-42.667 42.667-42.667 42.667 19.115 42.667 42.667-19.115 42.667-42.667 42.667z" />
<glyph unicode="&#xe912;" glyph-name="Pictures-Night" d="M917.333 85.333h-810.667c-47.125 0-85.333 38.208-85.333 85.333v554.667c0 47.125 38.208 85.333 85.333 85.333h810.667c47.125 0 85.333-38.208 85.333-85.333v-554.667c0-47.125-38.208-85.333-85.333-85.333zM960 725.333c0 23.552-19.115 42.667-42.667 42.667h-810.667c-23.552 0-42.667-19.115-42.667-42.667v-554.667c0-23.552 19.115-42.667 42.667-42.667h810.667c23.552 0 42.667 19.115 42.667 42.667v554.667zM881.792 219.413l-135.125 135.125-77.205-77.205 71.125-71.125c8.128-8.128 8.128-21.312 0-29.461-8.149-8.128-21.333-8.128-29.461 0l-305.792 305.792-263.125-263.125c-8.128-8.128-21.312-8.128-29.461 0-8.128 8.149-8.128 21.333 0 29.461l275.307 275.307c0.683 1.024 1.131 2.155 2.027 3.072 4.203 4.203 9.749 6.123 15.253 5.995 5.504 0.128 11.051-1.792 15.253-5.995 0.896-0.917 1.323-2.048 2.027-3.072l217.387-217.387 89.387 89.387c0.704 1.003 1.131 2.155 2.027 3.072 4.203 4.181 9.749 6.123 15.253 5.995 5.504 0.128 11.051-1.813 15.253-5.995 0.896-0.917 1.323-2.069 2.027-3.072l147.307-147.307c8.128-8.128 8.128-21.312 0-29.461-8.149-8.128-21.333-8.128-29.461 0zM618.667 554.667c-47.125 0-85.333 38.208-85.333 85.333 0 34.624 20.715 64.277 50.325 77.653-4.821-10.688-7.659-22.485-7.659-34.987 0-47.125 38.208-85.333 85.333-85.333 12.501 0 24.299 2.837 35.008 7.659-13.376-29.611-43.051-50.325-77.675-50.325z" />
<glyph unicode="&#xe913;" glyph-name="Photos" d="M994.709 492.907l-197.013-422.507c-19.797-42.432-70.208-60.8-112.64-41.003l-115.691 53.952c-8.427 2.859-14.571 10.581-14.571 19.968 0 11.797 9.557 21.333 21.333 21.333 3.648 0 6.912-1.152 9.92-2.773l0.192 0.363 116.736-54.421c21.205-9.899 46.443-0.725 56.32 20.501l197.013 422.507c9.899 21.227 0.704 46.421-20.501 56.32l-146.325 68.245c0 0-21.995 7.595-21.995 23.936 0 11.776 9.536 21.333 21.333 21.333 3.776 0 7.147-1.259 10.219-2.965l154.688-72.128c42.389-19.797 60.757-70.229 40.981-112.661zM618.795 192h-512c-47.125 0-85.333 38.208-85.333 85.333v512c0 47.125 38.208 85.333 85.333 85.333h512c47.125 0 85.333-38.208 85.333-85.333v-512c0-47.125-38.208-85.333-85.333-85.333zM384.128 405.333v21.333l24.704 9.984c12.373 9.941 43.627 39.403 43.627 39.403l0.853 4.181c6.507 32.235 15.68 85.355 15.68 102.485 0 69.12-32.747 99.968-106.219 99.968s-106.219-30.827-106.219-99.968c0-18.603 9.621-72.683 15.68-102.421l0.853-5.227c6.976-7.019 26.453-25.707 43.819-37.717l24.555-10.688v-21.333c-0.171 1.728 0-42.667 0-42.667 0-34.496-23.573-44.459-55.893-44.459-0.021 0-0.043 0-0.064 0-72.491-2.837-83.776-26.731-86.315-29.504-2.283-3.392-4.779-46.528-7.232-54.037h341.717c-2.411 7.488-4.8 50.411-7.403 54.293-1.003 1.195-10.517 26.005-84.544 29.205-34.005 0-57.6 9.984-57.6 44.501 0 0 0.384 45.675 0 42.667zM661.461 789.333c0 23.552-19.115 42.667-42.667 42.667h-512c-23.552 0-42.667-19.115-42.667-42.667v-512c0-23.552 19.115-42.667 42.667-42.667h38.507c7.445 13.739 11.371 67.157 19.008 78.635 0 0 13.291 43.477 117.952 47.552 10.667 0 16 6.677 16 16.917 0 8.256 0 14.784 0 14.784 0 2.069-0.341 3.904-0.448 5.909-9.301 7.403-11.499 10.219-27.627 23.659 0 0-35.712 23.381-39.701 49.643 0 0-16.533 81.067-16.533 110.933 0 73.6 32.853 142.635 148.885 142.635 114.453 0 148.885-69.013 148.885-142.635 0-29.141-16.533-110.933-16.533-110.933-3.328-24.875-39.701-49.643-39.701-49.643-14.464-13.419-21.013-19.072-29.312-24.491-0.064-1.728-0.384-3.307-0.384-5.077 0 0 0-6.549 0-14.784 0-10.219 5.333-16.917 16-16.917 106.24-4.565 119.552-47.552 119.552-47.552 7.616-11.456 11.563-64.896 19.029-78.635h38.485c23.552 0 42.667 19.115 42.667 42.667v512z" />
<glyph unicode="&#xe914;" glyph-name="Music" d="M832 64h-128c-58.923 0-106.667 47.744-106.667 106.667v42.667c0 58.923 47.744 106.667 106.667 106.667h192c0 182.123 0 533.952 0 533.333 0 23.552-19.115 42.667-42.667 42.667-2.283 0-4.501-0.32-6.677-0.683l-391.36-107.861-0.619-0.896c-16.32-5.973-28.011-21.504-28.011-39.893v-682.667c0-58.923-47.744-106.667-106.667-106.667h-128c-58.923 0-106.667 47.744-106.667 106.667v42.667c0 58.923 47.744 106.667 106.667 106.667h192v533.333c0 37.312 24.107 68.693 57.451 80.277l-0.128 0.384 390.784 108.416c6.784 1.771 13.845 2.923 21.227 2.923 47.125 0 85.333-38.208 85.333-85.333v0-682.667c0-58.923-47.744-106.667-106.667-106.667zM384 106.667v0 64h-192c-35.328 0-64-28.651-64-64v-42.667c0-35.349 28.672-64 64-64h128c35.328 0 64 28.651 64 64v42.667zM896 213.333c0 0 0 0 0 0v64h-192c-35.349 0-64-28.651-64-64v-42.667c0-35.349 28.651-64 64-64h128c35.349 0 64 28.651 64 64v42.667z" />
<glyph unicode="&#xe915;" glyph-name="Music-Playlist" d="M945.323 862.976l0.021-0.149-148.715-41.067-0.619-0.896c-16.32-5.995-28.011-21.525-28.011-39.915v-682.667c0-58.923-47.744-106.667-106.667-106.667h-128c-58.923 0-106.667 47.744-106.667 106.667v42.667c0 58.923 47.744 106.667 106.667 106.667h192v533.333c0 37.312 24.107 68.693 57.451 80.277l-0.128 0.384 147.221 40.661c0.939 0.448 2.005 0.533 3.029 0.832l4.416 1.237 0.064-0.32c0.448 0.021 0.811 0.256 1.28 0.256 11.797 0 21.333-9.557 21.333-21.333 0-9.408-6.208-17.173-14.677-19.968zM725.333 140.949v0 64h-192c-35.328 0-64-28.651-64-64v-42.667c0-35.349 28.672-64 64-64h128c35.349 0 64 28.651 64 64v42.667zM576 332.949h-490.667c-11.797 0-21.333 9.536-21.333 21.333 0 11.776 9.536 21.333 21.333 21.333h490.667c11.797 0 21.333-9.557 21.333-21.333s-9.536-21.333-21.333-21.333zM576 503.616h-490.667c-11.797 0-21.333 9.557-21.333 21.333s9.536 21.333 21.333 21.333h490.667c11.797 0 21.333-9.557 21.333-21.333s-9.536-21.333-21.333-21.333zM576 674.283h-490.667c-11.797 0-21.333 9.557-21.333 21.333s9.536 21.333 21.333 21.333h490.667c11.797 0 21.333-9.557 21.333-21.333s-9.536-21.333-21.333-21.333zM85.333 204.949h192c11.797 0 21.333-9.557 21.333-21.333 0-11.797-9.536-21.333-21.333-21.333h-192c-11.797 0-21.333 9.536-21.333 21.333 0 11.776 9.536 21.333 21.333 21.333z" />
<glyph unicode="&#xe916;" glyph-name="Videos" d="M917.333 64h-810.667c-47.125 0-85.333 38.208-85.333 85.333v597.333c0 47.125 38.208 85.333 85.333 85.333h810.667c47.125 0 85.333-38.208 85.333-85.333v-597.333c0-47.125-38.208-85.333-85.333-85.333zM256 789.333h-149.333c-23.552 0-42.667-19.115-42.667-42.667v-42.667h192v85.333zM490.667 789.333h-192v-85.333h192v85.333zM725.333 789.333h-192v-85.333h192v85.333zM960 746.667c0 23.552-19.115 42.667-42.667 42.667h-149.333v-85.333h192v42.667zM960 661.333v0h-896v-426.667h896v426.667zM960 192v0h-192v-85.333h-42.667v85.333h-192v-85.333h-42.667v85.333h-192v-85.333h-42.667v85.333h-192v-42.667c0-23.552 19.115-42.667 42.667-42.667h810.667c23.552 0 42.667 19.115 42.667 42.667v42.667zM461.248 325.013c-3.669-2.965-8.171-5.013-13.248-5.013-11.797 0-21.333 9.536-21.333 21.333v213.333c0 11.776 9.536 21.333 21.333 21.333 4.544 0 8.533-1.749 12.011-4.181l165.781-103.936c8.235-2.923 14.208-10.624 14.208-19.883 0-6.933-3.52-12.821-8.64-16.704l-170.112-106.283z" />
<glyph unicode="&#xe917;" glyph-name="TV" d="M981.333 170.667h-938.667c-11.797 0-21.333 9.536-21.333 21.333v597.333c0 11.776 9.536 21.333 21.333 21.333h938.667c11.797 0 21.333-9.557 21.333-21.333v-597.333c0-11.797-9.536-21.333-21.333-21.333zM960 768h-896v-554.667h896v554.667zM448 618.667c4.565 0 8.533-1.749 12.011-4.181l165.781-103.936c8.235-2.923 14.208-10.624 14.208-19.883 0-6.933-3.52-12.821-8.64-16.704l-170.112-106.261c-3.669-2.987-8.171-5.035-13.248-5.035-11.797 0-21.333 9.536-21.333 21.333v213.333c0 11.776 9.536 21.333 21.333 21.333zM320 128h384c11.797 0 21.333-9.536 21.333-21.333s-9.536-21.333-21.333-21.333h-384c-11.797 0-21.333 9.536-21.333 21.333s9.536 21.333 21.333 21.333z" />
<glyph unicode="&#xe918;" glyph-name="Camera-Front" d="M917.333 85.333h-810.667c-47.125 0-85.333 38.208-85.333 85.333v469.333c0 47.125 38.208 85.333 85.333 85.333h21.333c0 23.552 19.115 42.667 42.667 42.667h42.667c23.552 0 42.667-19.115 42.667-42.667h42.667c0 0 24 2.667 42.667 21.333l42.667 42.667c0 0 16.661 21.333 42.667 21.333h170.667c27.989 0 42.667-21.333 42.667-21.333l42.667-42.667c18.667-18.667 42.667-21.333 42.667-21.333h192c47.125 0 85.333-38.208 85.333-85.333v-469.333c0-47.125-38.208-85.333-85.333-85.333zM960 640c0 23.552-19.115 42.667-42.667 42.667l-196.715 0.277c-6.507 0.704-40.299 5.739-68.117 33.557l-45.44 45.44-2.219 3.221c-0.021 0.021-3.328 2.837-7.509 2.837h-170.667c-3.264 0-8-3.797-9.045-4.928l-1.6-2.048-44.523-44.501c-27.84-27.84-61.632-32.853-68.117-33.557l-88.555-0.128c-0.512-0.043-1.003-0.171-1.493-0.171h-42.667c-0.299 0-0.555 0.085-0.853 0.085l-63.147-0.085c-23.552 0-42.667-19.115-42.667-42.667v-469.333c0-23.552 19.115-42.667 42.667-42.667h810.667c23.552 0 42.667 19.115 42.667 42.667v469.333zM512 170.667c-129.6 0-234.667 105.067-234.667 234.667s105.067 234.667 234.667 234.667 234.667-105.067 234.667-234.667-105.067-234.667-234.667-234.667zM512 597.333c-106.048 0-192-85.952-192-192s85.952-192 192-192 192 85.952 192 192-85.952 192-192 192zM512 298.667c-58.923 0-106.667 47.744-106.667 106.667s47.744 106.667 106.667 106.667 106.667-47.744 106.667-106.667-47.744-106.667-106.667-106.667zM512 469.333c-35.328 0-64-28.672-64-64 0-35.349 28.672-64 64-64 35.349 0 64 28.651 64 64 0 35.328-28.651 64-64 64zM213.333 554.667h-85.333c-11.797 0-21.333 9.536-21.333 21.333v42.667c0 11.776 9.536 21.333 21.333 21.333h85.333c11.797 0 21.333-9.557 21.333-21.333v-42.667c0-11.797-9.536-21.333-21.333-21.333z" />
<glyph unicode="&#xe919;" glyph-name="Camera-Back" d="M917.333 85.333h-810.667c-47.125 0-85.333 38.208-85.333 85.333v469.333c0 47.125 38.208 85.333 85.333 85.333h192c0 0 24 2.667 42.667 21.333l42.667 42.667c0 0 16.661 21.333 42.667 21.333h170.667c27.989 0 42.667-21.333 42.667-21.333l42.667-42.667c18.667-18.667 42.667-21.333 42.667-21.333h42.667c0 23.552 19.115 42.667 42.667 42.667h42.667c23.552 0 42.667-19.115 42.667-42.667v0h21.333c47.125 0 85.333-38.208 85.333-85.333v-469.333c0-47.125-38.208-85.333-85.333-85.333zM960 640c0 23.552-19.115 42.667-42.667 42.667l-63.147 0.085c-0.299 0-0.555-0.085-0.853-0.085h-42.667c-0.491 0-0.981 0.128-1.472 0.149l-88.555 0.128c-6.507 0.704-40.299 5.739-68.117 33.557l-45.44 45.44-2.219 3.221c-0.043 0.021-3.349 2.837-7.531 2.837h-170.667c-3.264 0-8-3.797-9.045-4.928l-1.6-2.048-44.523-44.501c-27.84-27.84-61.632-32.853-68.117-33.557l-196.715-0.299c-23.552 0-42.667-19.115-42.667-42.667v-469.333c0-23.552 19.115-42.667 42.667-42.667h810.667c23.552 0 42.667 19.115 42.667 42.667v469.333zM874.667 213.333h-42.667c-11.797 0-21.333 9.536-21.333 21.333s9.536 21.333 21.333 21.333h42.667c11.797 0 21.333-9.536 21.333-21.333s-9.536-21.333-21.333-21.333zM874.667 298.667h-42.667c-11.797 0-21.333 9.536-21.333 21.333s9.536 21.333 21.333 21.333h42.667c11.797 0 21.333-9.536 21.333-21.333s-9.536-21.333-21.333-21.333zM800 405.333c-53.013 0-96 42.987-96 96s42.987 96 96 96 96-42.987 96-96-42.987-96-96-96zM800 554.667c-29.461 0-53.333-23.872-53.333-53.333s23.872-53.333 53.333-53.333 53.333 23.872 53.333 53.333-23.872 53.333-53.333 53.333zM725.333 341.333h42.667c11.797 0 21.333-9.536 21.333-21.333s-9.536-21.333-21.333-21.333h-42.667c-11.776 0-21.333 9.536-21.333 21.333s9.557 21.333 21.333 21.333zM725.333 256h42.667c11.797 0 21.333-9.536 21.333-21.333s-9.536-21.333-21.333-21.333h-42.667c-11.776 0-21.333 9.536-21.333 21.333s9.557 21.333 21.333 21.333zM618.667 192h-469.333c-11.797 0-21.333 9.536-21.333 21.333v384c0 11.776 9.536 21.333 21.333 21.333h469.333c11.797 0 21.333-9.557 21.333-21.333v-384c0-11.797-9.536-21.333-21.333-21.333zM484.672 234.667c-2.837 8.299-9.088 18.645-11.328 22.656-0.085 0.149-5.931 15.68-42.005 17.493-0.021 0-0.021 0-0.043 0-11.947 0-26.923 8.277-26.923 29.717 0 5.355 0.427 23.36 0.427 23.36-0.043-0.043-0.043-0.043-0.043-0.043-0.043 0-0.235 17.6-0.235 17.6s9.557 4.096 21.611 16.341c7.040 6.549 15.957 25.28 15.957 25.28 1.92 13.013 5.333 35.797 5.333 48.768 0 27.072-31.189 55.147-63.424 55.147v0c-33.749 0-63.424-25.792-63.424-55.147 0-12.971 2.752-35.755 4.672-48.768 0 0 9.579-18.731 16.619-25.28 12.032-12.224 20.928-16.341 20.928-16.341s-0.192-17.6-0.235-17.6c0 0 0 0-0.043 0.043 0 0 0.427-18.005 0.427-23.36 0-21.44-15.637-29.717-27.584-29.717-0.021 0-0.021 0-0.043 0-36.053-1.813-40.576-17.344-40.661-17.493-2.24-4.011-9.173-14.357-11.989-22.656h202.005zM597.333 576h-426.667v-341.333h59.456c4.16 9.792 9.963 21.867 16.619 31.189 0.427 0.235 13.632 47.168 84.501 48.043-5.483 3.52-10.091 10.005-15.424 15.232-4.373 2.731-25.835 17.92-30.784 44.971-1.493 9.429-8.555 43.115-8.555 61.717 0 55.232 44.779 97.6 106.475 97.6 0.384 0 1.707 0 2.091 0 64 0 105.152-42.368 105.152-97.6 0-18.581-6.4-52.267-7.893-61.717-4.949-27.072-24.427-42.24-28.8-44.971-5.333-5.227-16.597-15.040-16.747-15.232 70.869-0.875 84.075-47.808 84.501-48.043 6.656-9.323 12.48-21.397 16.619-31.189h59.456v341.333z" />
<glyph unicode="&#xe91a;" glyph-name="Phone" d="M704-42.667h-384c-47.125 0-85.333 38.208-85.333 85.333v810.667c0 47.125 38.208 85.333 85.333 85.333h384c47.125 0 85.333-38.208 85.333-85.333v-810.667c0-47.125-38.208-85.333-85.333-85.333zM746.667 853.333c0 23.552-19.115 42.667-42.667 42.667h-384c-23.552 0-42.667-19.115-42.667-42.667v-85.333h469.333v85.333zM746.667 725.333h-469.333v-554.667h469.333v554.667zM746.667 128h-469.333v-85.333c0-23.552 19.115-42.667 42.667-42.667h384c23.552 0 42.667 19.115 42.667 42.667v85.333zM512 21.333c-23.552 0-42.667 19.115-42.667 42.667s19.115 42.667 42.667 42.667 42.667-19.115 42.667-42.667-19.115-42.667-42.667-42.667zM362.667 661.333h42.667c11.797 0 21.333-9.557 21.333-21.333v-42.667c0-11.776-9.536-21.333-21.333-21.333h-42.667c-11.797 0-21.333 9.557-21.333 21.333v42.667c0 11.776 9.536 21.333 21.333 21.333zM362.667 512h42.667c11.797 0 21.333-9.557 21.333-21.333v-42.667c0-11.797-9.536-21.333-21.333-21.333h-42.667c-11.797 0-21.333 9.536-21.333 21.333v42.667c0 11.776 9.536 21.333 21.333 21.333zM362.667 362.667h42.667c11.797 0 21.333-9.536 21.333-21.333v-42.667c0-11.797-9.536-21.333-21.333-21.333h-42.667c-11.797 0-21.333 9.536-21.333 21.333v42.667c0 11.797 9.536 21.333 21.333 21.333zM490.667 661.333h42.667c11.797 0 21.333-9.557 21.333-21.333v-42.667c0-11.776-9.536-21.333-21.333-21.333h-42.667c-11.797 0-21.333 9.557-21.333 21.333v42.667c0 11.776 9.536 21.333 21.333 21.333zM490.667 512h42.667c11.797 0 21.333-9.557 21.333-21.333v-42.667c0-11.797-9.536-21.333-21.333-21.333h-42.667c-11.797 0-21.333 9.536-21.333 21.333v42.667c0 11.776 9.536 21.333 21.333 21.333zM490.667 362.667h42.667c11.797 0 21.333-9.536 21.333-21.333v-42.667c0-11.797-9.536-21.333-21.333-21.333h-42.667c-11.797 0-21.333 9.536-21.333 21.333v42.667c0 11.797 9.536 21.333 21.333 21.333zM618.667 661.333h42.667c11.797 0 21.333-9.557 21.333-21.333v-42.667c0-11.776-9.536-21.333-21.333-21.333h-42.667c-11.797 0-21.333 9.557-21.333 21.333v42.667c0 11.776 9.536 21.333 21.333 21.333zM618.667 512h42.667c11.797 0 21.333-9.557 21.333-21.333v-42.667c0-11.797-9.536-21.333-21.333-21.333h-42.667c-11.797 0-21.333 9.536-21.333 21.333v42.667c0 11.776 9.536 21.333 21.333 21.333zM448 853.333h128c11.797 0 21.333-9.557 21.333-21.333s-9.536-21.333-21.333-21.333h-128c-11.797 0-21.333 9.557-21.333 21.333s9.536 21.333 21.333 21.333z" />
<glyph unicode="&#xe91b;" glyph-name="Tablet" d="M810.667-42.667h-597.333c-47.125 0-85.333 38.208-85.333 85.333v810.667c0 47.125 38.208 85.333 85.333 85.333h597.333c47.125 0 85.333-38.208 85.333-85.333v-810.667c0-47.125-38.208-85.333-85.333-85.333zM853.333 853.333c0 23.552-19.115 42.667-42.667 42.667h-597.333c-23.552 0-42.667-19.115-42.667-42.667v-810.667c0-23.552 19.115-42.667 42.667-42.667h597.333c23.552 0 42.667 19.115 42.667 42.667v810.667zM213.333 128v682.667h597.333v-682.667h-597.333zM256 170.667h512v597.333h-512v-597.333zM682.667 618.667h-42.667c-11.797 0-21.333 9.557-21.333 21.333v42.667c0 11.776 9.536 21.333 21.333 21.333h42.667c11.797 0 21.333-9.557 21.333-21.333v-42.667c0-11.776-9.536-21.333-21.333-21.333zM533.333 469.333h-42.667c-11.797 0-21.333 9.536-21.333 21.333v42.667c0 11.776 9.536 21.333 21.333 21.333h42.667c11.797 0 21.333-9.557 21.333-21.333v-42.667c0-11.797-9.536-21.333-21.333-21.333zM533.333 618.667h-42.667c-11.797 0-21.333 9.557-21.333 21.333v42.667c0 11.776 9.536 21.333 21.333 21.333h42.667c11.797 0 21.333-9.557 21.333-21.333v-42.667c0-11.776-9.536-21.333-21.333-21.333zM384 469.333h-42.667c-11.797 0-21.333 9.536-21.333 21.333v42.667c0 11.776 9.536 21.333 21.333 21.333h42.667c11.797 0 21.333-9.557 21.333-21.333v-42.667c0-11.797-9.536-21.333-21.333-21.333zM384 618.667h-42.667c-11.797 0-21.333 9.557-21.333 21.333v42.667c0 11.776 9.536 21.333 21.333 21.333h42.667c11.797 0 21.333-9.557 21.333-21.333v-42.667c0-11.776-9.536-21.333-21.333-21.333zM490.667 874.667h42.667v-42.667h-42.667v42.667zM512 106.667c23.552 0 42.667-19.115 42.667-42.667s-19.115-42.667-42.667-42.667-42.667 19.115-42.667 42.667 19.115 42.667 42.667 42.667z" />
<glyph unicode="&#xe91c;" glyph-name="Mac" d="M917.333 213.333h-294.507c12.693-70.421 54.891-118.869 93.888-149.333h51.285c11.797 0 21.333-9.536 21.333-21.333s-9.536-21.333-21.333-21.333h-512c-11.797 0-21.333 9.536-21.333 21.333s9.536 21.333 21.333 21.333h51.264c38.976 30.464 81.216 78.912 93.888 149.333h-294.485c-47.125 0-85.333 38.208-85.333 85.333v490.667c0 47.125 38.208 85.333 85.333 85.333h810.667c47.125 0 85.333-38.208 85.333-85.333v-490.667c0-47.125-38.208-85.333-85.333-85.333zM371.136 64h281.707c-34.027 35.883-64.32 84.821-73.792 149.333h-134.123c-9.472-64.512-39.765-113.451-73.792-149.333zM960 789.333c0 23.552-19.115 42.667-42.667 42.667h-810.667c-23.552 0-42.667-19.115-42.667-42.667v-405.333h896v405.333zM960 341.333h-896v-42.667c0-23.552 19.115-42.667 42.667-42.667h810.667c23.552 0 42.667 19.115 42.667 42.667v42.667zM512 277.333c-11.797 0-21.333 9.536-21.333 21.333s9.536 21.333 21.333 21.333 21.333-9.536 21.333-21.333-9.536-21.333-21.333-21.333z" />
<glyph unicode="&#xe91d;" glyph-name="User" d="M512 0c-247.424 0-448 200.576-448 448s200.576 448 448 448 448-200.576 448-448-200.576-448-448-448zM760.171 128c-3.349 4.928-7.573 11.051-10.965 15.829-5.909 8.405-11.819 16.811-17.109 25.131-0.256 0.384-29.483 39.595-134.763 44.373-36.629 0-63.253 27.477-63.317 65.408l-0.683 19.925c0 2.88-0.341-3.157 0 0v21.333l21.333 21.333c15.595 7.232 35.413 19.392 51.093 31.232l2.88 1.984c12.395 7.872 29.717 24.448 31.36 30.784l0.768 8.128c7.957 41.024 20.565 115.648 20.565 141.205 0 100.48-48.853 149.333-149.333 149.333-101.867 0-149.333-47.445-149.333-149.333 0-26.24 12.608-100.501 20.544-141.141l0.747-7.509c1.344-6.677 17.045-22.485 30.912-31.189l2.091-1.323c16.811-11.755 36.907-24.853 52.373-32.171l21.333-21.333v-21.333c0.299-2.944 0 3.115 0 0l-0.704-19.925c0-37.867-26.581-65.365-61.504-65.365-0.021 0-0.043 0-0.064 0-105.728-4.288-136.384-44.309-136.427-44.309-5.376-8.448-11.264-16.832-17.216-25.259-3.349-4.779-7.573-10.88-10.944-15.808 68.629-53.291 154.56-85.333 248.171-85.333s179.563 32.043 248.192 85.333zM512 853.333c-223.851 0-405.333-181.483-405.333-405.333 0-114.901 48-218.389 124.8-292.139 8.149 12.053 16.853 24.085 24.533 36.139 0 0 35.627 58.517 170.667 64 13.76 0 20.629 9.003 20.629 22.741h0.021c-0.021 11.115-0.021 19.925-0.021 19.925 0 2.773-0.448 5.269-0.576 7.957-15.445 7.296-33.365 17.365-54.165 31.872 0 0-51.2 31.488-51.2 66.837 0 0-21.333 109.141-21.333 149.333 0 99.072 42.368 192 192 192 147.627 0 192-92.928 192-192 0-39.211-21.333-149.333-21.333-149.333 0-34.368-51.2-66.837-51.2-66.837-20.373-15.381-38.421-25.643-54.251-32.981-0.107-2.325-0.491-4.459-0.491-6.848 0 0-0.021-8.811-0.021-19.925h0.021c-0.043-13.739 6.827-22.741 20.587-22.741 137.045-6.144 170.667-64 170.667-64 7.68-12.053 16.363-24.085 24.512-36.139 76.8 73.749 124.821 177.237 124.821 292.139 0 223.851-181.483 405.333-405.333 405.333z" />
<glyph unicode="&#xe91e;" glyph-name="ID-Horizontal" d="M917.333 64h-810.667c-47.125 0-85.333 38.208-85.333 85.333v448c0 47.125 38.208 85.333 85.333 85.333h320v85.333c0 47.125 38.208 85.333 85.333 85.333s85.333-38.208 85.333-85.333v-85.333h320c47.125 0 85.333-38.208 85.333-85.333v-448c0-47.125-38.208-85.333-85.333-85.333zM362.965 224.256c0-0.064 0-0.085 0-0.085-0.085 0-0.384 16.661-0.384 16.661s24.875 12.821 43.328 29.397c10.816 8.896 15.808 29.056 15.808 29.056 2.923 17.664 5.077 61.376 5.077 78.997 0 43.989-22.037 91.307-85.483 91.307v0.021c-63.445 0-85.483-47.339-85.483-91.307 0-17.621 2.176-61.333 5.077-78.997 0 0 4.992-20.16 15.808-29.056 18.453-16.576 43.328-29.397 43.328-29.397s-0.299-16.661-0.384-16.661c0 0 0 0.021 0 0.085 0 0 0.619-24.448 0.619-31.723 0-29.056-29.12-43.051-47.424-43.051-0.043 0-0.043 0-0.064 0-55.317-2.411-68.373-20.821-68.48-20.992-3.371-5.419-8.064-10.795-12.352-21.845h298.752c-4.288 11.051-8.981 16.427-12.416 21.803-0.107 0.192-13.163 18.581-68.48 20.992-0.021 0-0.021 0-0.064 0-18.283 0-47.424 13.973-47.424 43.051 0 7.296 0.64 31.744 0.64 31.744zM554.667 768c0 23.552-19.115 42.667-42.667 42.667s-42.667-19.115-42.667-42.667v-128c0-23.552 19.115-42.667 42.667-42.667s42.667 19.115 42.667 42.667v128zM960 597.333c0 23.552-19.115 42.667-42.667 42.667h-320c0-47.125-38.208-85.333-85.333-85.333s-85.333 38.208-85.333 85.333h-320c-23.552 0-42.667-19.115-42.667-42.667v-448c0-23.552 19.115-42.667 42.667-42.667h38.336c4.928 12.565 13.995 33.045 24.747 47.787 0.533 0.299 18.091 37.099 106.624 38.187 0.128 0.448 0.213 22.229 0.469 21.909-6.827 4.309-15.723 11.008-22.421 17.408-5.44 3.328-24.768 21.952-30.976 55.104-1.856 11.563-10.411 66.112-10.411 88.875 0 67.648 26.987 136.128 126.997 136.128 0.448 0 2.133 0 2.581 0 100.011 0 126.997-68.48 126.997-136.128 0-22.763-8.555-77.312-10.411-88.875-6.208-33.152-25.536-51.776-30.976-55.104-6.677-6.421-15.573-13.099-22.421-17.408 0.277 0.32 0.363-21.483 0.469-21.909 88.555-1.088 106.112-37.888 106.624-38.187 10.752-14.741 19.819-35.221 24.747-47.787h379.691c23.552 0 42.667 19.115 42.667 42.667v448zM853.333 405.333h-256c-11.797 0-21.333 9.536-21.333 21.333s9.536 21.333 21.333 21.333h256c11.797 0 21.333-9.536 21.333-21.333s-9.536-21.333-21.333-21.333zM597.333 320h42.667c11.797 0 21.333-9.536 21.333-21.333s-9.536-21.333-21.333-21.333h-42.667c-11.797 0-21.333 9.536-21.333 21.333s9.536 21.333 21.333 21.333zM597.333 234.667h128c11.797 0 21.333-9.536 21.333-21.333s-9.536-21.333-21.333-21.333h-128c-11.797 0-21.333 9.536-21.333 21.333s9.536 21.333 21.333 21.333zM682.667 298.667c0 11.797 9.536 21.333 21.333 21.333h85.333c11.797 0 21.333-9.536 21.333-21.333s-9.536-21.333-21.333-21.333h-85.333c-11.797 0-21.333 9.536-21.333 21.333zM490.667 768h42.667v-42.667h-42.667v42.667z" />
<glyph unicode="&#xe91f;" glyph-name="ID-Vertical" d="M746.667-42.667h-469.333c-47.125 0-85.333 38.208-85.333 85.333v640c0 47.125 38.208 85.333 85.333 85.333h149.333v85.333c0 47.125 38.208 85.333 85.333 85.333s85.333-38.208 85.333-85.333v-85.333h149.333c47.125 0 85.333-38.208 85.333-85.333v-640c0-47.125-38.208-85.333-85.333-85.333zM554.667 853.333c0 23.552-19.115 42.667-42.667 42.667s-42.667-19.115-42.667-42.667v-128c0-23.552 19.115-42.667 42.667-42.667s42.667 19.115 42.667 42.667v128zM789.333 682.667c0 23.552-19.115 42.667-42.667 42.667h-149.333c0-47.125-38.208-85.333-85.333-85.333s-85.333 38.208-85.333 85.333h-149.333c-23.552 0-42.667-19.115-42.667-42.667v-512h81.003c4.928 12.565 13.995 33.045 24.747 47.787 0.533 0.299 18.091 37.099 106.624 38.187 0.128 0.448 0.213 22.229 0.469 21.909-6.827 4.309-15.723 11.008-22.421 17.408-5.44 3.328-24.768 21.952-30.976 55.104-1.856 11.563-10.411 66.112-10.411 88.875 0 67.648 26.987 136.128 126.997 136.128 0.448 0 2.133 0 2.581 0 100.011 0 126.997-68.48 126.997-136.128 0-22.763-8.555-77.312-10.411-88.875-6.208-33.152-25.515-51.776-30.976-55.104-6.677-6.421-15.573-13.099-22.421-17.408 0.277 0.32 0.384-21.483 0.469-21.909 88.555-1.088 106.112-37.888 106.624-38.187 10.752-14.741 19.819-35.221 24.747-47.787h81.024v512zM533.632 288.256c-0.021-0.064-0.021-0.085-0.021-0.085-0.064 0-0.363 16.661-0.363 16.661s24.875 12.821 43.328 29.397c10.816 8.896 15.808 29.056 15.808 29.056 2.923 17.664 5.077 61.376 5.077 78.997 0 43.989-22.037 91.307-85.483 91.307 0 0 0 0.128 0 0.149 0 0 0-0.149 0-0.149-63.445 0-85.483-47.339-85.483-91.307 0-17.621 2.197-61.333 5.077-78.997 0 0 4.992-20.16 15.808-29.056 18.453-16.576 43.328-29.397 43.328-29.397s-0.299-16.661-0.384-16.661c0 0 0 0.021 0 0.085 0 0 0.619-24.448 0.619-31.701 0-29.077-29.12-43.072-47.424-43.072-0.043 0-0.043 0-0.064 0-55.317-2.432-68.373-20.821-68.48-20.992-3.371-5.397-8.043-10.773-12.352-21.824h298.773c-4.331 11.051-9.003 16.427-12.416 21.803-0.128 0.192-13.205 18.56-68.501 20.992-0.021 0-0.021 0-0.043 0-18.304 0-47.445 13.973-47.445 43.072 0 7.275 0.64 31.723 0.64 31.723zM789.333 128h-554.667v-85.333c0-23.552 19.115-42.667 42.667-42.667h469.333c23.552 0 42.667 19.115 42.667 42.667v85.333zM661.333 42.667h-64c-11.797 0-21.333 9.536-21.333 21.333s9.536 21.333 21.333 21.333h64c11.797 0 21.333-9.536 21.333-21.333s-9.536-21.333-21.333-21.333zM490.667 42.667h-128c-11.797 0-21.333 9.536-21.333 21.333s9.536 21.333 21.333 21.333h128c11.797 0 21.333-9.536 21.333-21.333s-9.536-21.333-21.333-21.333zM490.667 853.333h42.667v-42.667h-42.667v42.667z" />
<glyph unicode="&#xe920;" glyph-name="Thumbs-Up" d="M960.789 353.579c12.629-14.869 20.544-33.899 20.544-54.933 0-31.168-16.896-58.176-41.877-73.045 12.629-14.891 20.544-33.92 20.544-54.955 0-31.189-16.917-58.155-41.877-73.045 12.629-14.869 20.544-33.899 20.544-54.933 0-47.125-38.208-85.333-85.333-85.333l-499.285 0.043v0.512c-34.176 1.472-64.384 17.579-84.8 42.155h-141.248c-58.923 0-106.667 114.624-106.667 256s47.744 256 106.667 256h178.923l162.411 234.624v106.667c11.541 69.589 64 64 64 64 47.189 0 64-21.333 64-21.333 64-64 64-170.667 64-170.667 0-140.971-64-213.333-64-213.333h320c47.125 0 85.333-38.208 85.333-85.333 0-31.189-16.917-58.197-41.877-73.088zM128 469.376c-16.448 0-64-73.344-64-213.333s47.552-213.333 64-213.333h118.997c-1.195 4.224-2.539 8.384-3.243 12.8-12.629 61.269-30.421 161.984-30.421 243.2 0 86.251 46.997 147.136 64 170.667h-149.333zM917.333 469.333h-414.699l62.741 70.933c0.533 0.619 53.291 63.659 53.291 184.939 0 0.896-1.152 90.283-51.499 140.608l-2.496 2.24c-14.357 9.024-34.112 6.699-34.112 6.699-11.371 0-16.427-14.635-18.56-25.28v-116.139l-202.411-292.16c-17.408-23.915-53.589-73.664-53.589-142.464 0-79.232 18.496-180.992 29.824-236.224 5.717-34.368 35.157-60.437 70.080-61.952l497.429-0.533c23.531 0 42.667 19.136 42.667 42.667 0 12.459-5.675 21.739-10.389 27.328l-32.619 38.421 43.264 25.835c13.205 7.872 21.077 21.483 21.077 36.395 0 12.459-5.675 21.781-10.411 27.371l-32.597 38.464 43.307 25.792c13.163 7.829 21.035 21.44 21.035 36.373 0 12.459-5.675 21.739-10.389 27.328l-32.619 38.421 43.264 25.835c13.205 7.872 21.077 21.483 21.077 36.416 0 23.552-19.136 42.688-42.667 42.688zM160 85.376c-17.664 0-32 14.336-32 32s14.336 32 32 32 32-14.336 32-32-14.336-32-32-32z" />
<glyph unicode="&#xe921;" glyph-name="Thumbs-Down" d="M981.333 576.107c0-21.035-7.915-40.064-20.544-54.933 24.96-14.912 41.877-41.899 41.877-73.067 0-47.147-38.208-85.355-85.333-85.355h-320c0 0 64-72.363 64-213.333 0 0 0-106.667-64-170.645 0 0-16.811-21.333-64-21.333 0 0-52.459-5.611-64 64v106.645l-162.411 234.624h-178.923c-58.923 0-106.667 114.624-106.667 256s47.744 256 106.667 256h141.248c20.416 24.555 50.624 40.661 84.8 42.155v0.512l499.285 0.043c47.125 0 85.333-38.208 85.333-85.333 0-21.035-7.915-40.064-20.544-54.933 24.96-14.912 41.877-41.856 41.877-73.045 0-21.035-7.915-40.064-20.544-54.955 24.981-14.891 41.877-41.877 41.877-73.045zM128 832.043c-16.448 0-64-73.344-64-213.333s47.552-213.333 64-213.333h149.333c-17.003 23.531-64 84.416-64 170.667 0 81.216 17.792 181.931 30.421 243.2 0.704 4.416 2.069 8.576 3.243 12.8h-118.997zM938.923 484.523l-43.264 25.835 32.619 38.421c4.715 5.589 10.389 14.869 10.389 27.328 0 14.933-7.872 28.544-21.035 36.373l-43.307 25.792 32.597 38.464c4.736 5.589 10.411 14.912 10.411 27.371 0 14.912-7.872 28.523-21.077 36.395l-43.264 25.835 32.619 38.421c4.715 5.589 10.389 14.869 10.389 27.328 0 23.531-19.136 42.667-42.667 42.667l-497.408-0.533c-34.923-1.515-64.384-27.584-70.080-61.952-11.349-55.232-29.845-156.992-29.845-236.224 0-68.8 36.181-118.549 53.589-142.443l2.325-3.243 200.085-288.939v-116.117c2.155-10.645 7.189-25.301 18.56-25.301 0 0 19.755-2.325 34.112 6.699l2.496 2.24c50.347 50.325 51.499 139.733 51.499 140.629 0 121.28-52.757 184.32-53.291 184.917l-62.741 70.933h414.699c23.531 0 42.667 19.136 42.667 42.688 0 14.933-7.872 28.544-21.077 36.416zM160 725.376c-17.664 0-32 14.315-32 32s14.336 32 32 32 32-14.315 32-32-14.336-32-32-32z" />
<glyph unicode="&#xe922;" glyph-name="Alarm-Clock" d="M919.509 658.923c-7.061 12.352-14.592 24.384-22.699 36.011 24.96 14.891 41.856 41.877 41.856 73.067 0 47.125-38.208 85.333-85.333 85.333-31.189 0-58.176-16.896-73.067-41.877-11.627 8.128-23.637 15.637-36.011 22.699 22.443 36.949 62.699 61.845 109.077 61.845 70.677 0 128-57.323 128-128 0-46.379-24.917-86.635-61.824-109.077zM938.667 426.667c0-110.315-42.219-210.517-110.933-286.272l104.853-104.853c8.128-8.128 8.128-21.312 0-29.461-8.149-8.128-21.333-8.128-29.461 0l-104.853 104.853c-75.755-68.715-175.957-110.933-286.272-110.933s-210.517 42.219-286.251 110.933l-104.875-104.853c-8.128-8.128-21.333-8.128-29.461 0-8.128 8.149-8.128 21.333 0 29.461l104.853 104.853c-68.715 75.755-110.933 175.957-110.933 286.272 0 235.648 191.019 426.667 426.667 426.667s426.667-191.019 426.667-426.667zM512 810.667c-212.075 0-384-171.925-384-384s171.925-384 384-384 384 171.925 384 384c0 212.075-171.925 384-384 384zM533.333 344.363v-195.029c0-11.797-9.536-21.333-21.333-21.333s-21.333 9.536-21.333 21.333v195.029c-36.757 9.515-64 42.603-64 82.304 0 15.979 4.672 30.741 12.331 43.541l-91.584 91.563c-8.128 8.128-8.128 21.333 0 29.461 8.149 8.128 21.333 8.128 29.461 0l91.584-91.563c12.8 7.659 27.563 12.331 43.541 12.331 47.125 0 85.333-38.208 85.333-85.333 0-39.701-27.243-72.789-64-82.304zM512 469.333c-23.552 0-42.667-19.115-42.667-42.667s19.115-42.667 42.667-42.667 42.667 19.115 42.667 42.667-19.115 42.667-42.667 42.667zM170.667 853.333c-47.125 0-85.333-38.208-85.333-85.333 0-31.189 16.917-58.176 41.877-73.067-8.128-11.627-15.637-23.659-22.699-36.011-36.928 22.443-61.845 62.699-61.845 109.077 0 70.677 57.323 128 128 128 46.379 0 86.635-24.896 109.077-61.845-12.373-7.061-24.405-14.571-36.011-22.699-14.891 24.981-41.899 41.877-73.067 41.877z" />
<glyph unicode="&#xe923;" glyph-name="Watch" d="M810.667 405.333c-1.024 0-1.984 0.235-3.008 0.299-11.584-86.976-58.091-162.837-124.992-213.184v-149.781c0-47.125-38.208-85.333-85.333-85.333h-213.333c-47.125 0-85.333 38.208-85.333 85.333v149.781c-77.589 58.389-128 150.976-128 255.552 0 104.597 50.411 197.184 128 255.552v149.781c0 47.125 38.208 85.333 85.333 85.333h213.333c47.125 0 85.333-38.208 85.333-85.333v-149.781c66.923-50.347 113.408-126.208 124.992-213.184 1.024 0.064 1.984 0.299 3.008 0.299 23.552 0 42.667-19.115 42.667-42.667s-19.115-42.667-42.667-42.667zM341.333 42.667c0-23.552 19.115-42.667 42.667-42.667h213.333c23.552 0 42.667 19.115 42.667 42.667v122.411c-44.608-23.573-95.381-37.077-149.333-37.077s-104.725 13.504-149.333 37.077v-122.411zM640 853.333c0 23.552-19.115 42.667-42.667 42.667h-213.333c-23.552 0-42.667-19.115-42.667-42.667v-122.411c44.608 23.595 95.381 37.077 149.333 37.077s104.725-13.483 149.333-37.077v122.411zM490.667 725.333c-153.173 0-277.333-124.16-277.333-277.333s124.16-277.333 277.333-277.333 277.333 124.16 277.333 277.333-124.16 277.333-277.333 277.333zM512 387.925v-131.925c0-11.797-9.536-21.333-21.333-21.333s-21.333 9.536-21.333 21.333v131.925c-24.789 8.811-42.667 32.256-42.667 60.075 0 10.048 2.517 19.413 6.656 27.904l-64.555 64.555c-8.128 8.128-8.128 21.333 0 29.461 8.149 8.128 21.333 8.128 29.461 0l64.555-64.555c8.469 4.117 17.835 6.635 27.883 6.635 35.349 0 64-28.672 64-64 0-27.84-17.856-51.264-42.667-60.075zM490.667 469.333c-11.797 0-21.333-9.536-21.333-21.333s9.536-21.333 21.333-21.333 21.333 9.536 21.333 21.333-9.536 21.333-21.333 21.333z" />
<glyph unicode="&#xe924;" glyph-name="Stopwatch" d="M797.568 640.085c60.992-67.989 98.432-157.547 98.432-256.085 0-212.075-171.925-384-384-384s-384 171.925-384 384c0 190.229 138.453 347.712 320 378.24v91.093h-42.667c-11.797 0-21.333 9.557-21.333 21.333s9.536 21.333 21.333 21.333h213.333c11.797 0 21.333-9.557 21.333-21.333s-9.536-21.333-21.333-21.333h-42.667v-90.987c73.109-12.395 139.179-45.312 192.107-92.8l49.685 49.685c8.128 8.128 21.312 8.128 29.461 0 8.128-8.128 8.128-21.333 0-29.461l-49.685-49.685zM533.333 853.333h-42.667v-86.421c7.104 0.405 14.123 1.088 21.333 1.088s14.229-0.619 21.333-1.003v86.336zM512 725.333c-188.501 0-341.333-152.811-341.333-341.333s152.832-341.333 341.333-341.333c188.523 0 341.333 152.811 341.333 341.333 0 188.501-152.811 341.333-341.333 341.333zM512 298.667c-47.125 0-85.333 38.208-85.333 85.333 0 15.979 4.672 30.763 12.331 43.541l-112.917 112.896c-8.128 8.128-8.128 21.333 0 29.461 8.149 8.128 21.333 8.128 29.461 0l112.917-112.896c12.8 7.659 27.563 12.331 43.541 12.331 47.125 0 85.333-38.208 85.333-85.333s-38.208-85.333-85.333-85.333zM512 426.667c-23.552 0-42.667-19.115-42.667-42.667s19.115-42.667 42.667-42.667 42.667 19.115 42.667 42.667-19.115 42.667-42.667 42.667z" />
<glyph unicode="&#xe925;" glyph-name="Location-Pin" d="M512-42.667c0 0-384 200.896-384 597.333 0 212.075 171.925 384 384 384s384-171.925 384-384c0-396.437-384-597.333-384-597.333zM512 896c-188.203 0-341.333-153.131-341.333-341.333 0-314.837 265.856-501.355 341.397-547.989 75.605 46.443 341.269 232.149 341.269 547.989 0 188.203-153.131 341.333-341.333 341.333zM512 362.667c-106.048 0-192 85.952-192 192s85.952 192 192 192 192-85.952 192-192-85.952-192-192-192zM512 704c-82.475 0-149.333-66.859-149.333-149.333s66.859-149.333 149.333-149.333 149.333 66.859 149.333 149.333-66.859 149.333-149.333 149.333z" />
<glyph unicode="&#xe926;" glyph-name="Heart" d="M529.152 28.843l-17.152-7.509-17.152 7.509c-220.459 135.147-452.181 442.773-452.181 613.632 0.747 139.904 115.285 253.483 256 253.483 88.939 0 167.445-45.397 213.333-114.112 45.888 68.715 124.395 114.112 213.333 114.112 140.715 0 255.253-113.579 256-253.483 0-170.859-231.723-478.485-452.181-613.632zM725.333 853.483c-71.552 0-138.005-35.563-177.813-95.147l-35.52-53.184-35.52 53.205c-39.808 59.563-106.261 95.125-177.813 95.125-116.992 0-212.715-94.763-213.333-211.008 0-150.699 218.325-443.904 426.667-574.229 208.341 130.325 426.667 423.509 426.667 574.016-0.619 116.459-96.341 211.221-213.333 211.221z" />
<glyph unicode="&#xe927;" glyph-name="Cloud" d="M746.667 106.667h-512v1.088c-107.797 10.709-192 101.611-192 212.245 0 110.656 84.224 201.579 192.043 212.245 0 0.384-0.043 0.704-0.043 1.088 0 141.376 114.624 256 256 256 126.869 0 231.915-92.395 252.181-213.525 1.301 0.021 2.517 0.192 3.819 0.192 129.6 0 234.667-105.067 234.667-234.667s-105.067-234.667-234.667-234.667zM746.667 533.333c-7.168 0-14.229-0.448-21.184-1.28l-0.043 0.107c-0.277-0.021-0.491-0.171-0.768-0.171-11.712 0-21.184 9.451-21.291 21.12l-0.384 0.043c-10.027 108.544-101.205 193.515-212.331 193.515-117.824 0-213.333-95.509-213.333-213.333 0-6.336 0.448-12.523 1.024-18.688l-0.213-0.064c0.107-0.875 0.512-1.664 0.512-2.581 0-11.584-9.259-20.885-20.757-21.205l-0.085-0.299c-0.597 0.021-1.195 0.171-1.813 0.171-94.251 0-170.667-76.416-170.667-170.667 0-87.019 65.173-158.677 149.333-169.195v-1.472h512c106.048 0 192 85.952 192 192s-85.952 192-192 192z" />
<glyph unicode="&#xe928;" glyph-name="Trophy" d="M768 576v0c0-119.253-81.643-219.136-192-247.595v-221.739h128c11.797 0 21.333-9.557 21.333-21.333 0-11.797-9.536-21.333-21.333-21.333h-384c-11.797 0-21.333 9.536-21.333 21.333 0 11.776 9.536 21.333 21.333 21.333h128v221.739c-110.357 28.459-192 128.341-192 247.595v0c-82.475 0-149.333 66.859-149.333 149.333v42.667c0 11.776 9.536 21.333 21.333 21.333h128v21.333c0 35.349-28.651 64-64 64v0c-11.797 0-21.333 9.557-21.333 21.333s9.536 21.333 21.333 21.333v0 0h640c11.797 0 21.333-9.557 21.333-21.333s-9.536-21.333-21.333-21.333v0c-35.349 0-64-28.651-64-64v0-21.333h128c11.797 0 21.333-9.557 21.333-21.333v-42.667c0-82.475-66.859-149.333-149.333-149.333zM490.667 106.667h42.667v214.421c-7.040-0.597-14.123-1.088-21.333-1.088s-14.293 0.491-21.333 1.088v-214.421zM149.333 746.667v-21.333c0-58.923 47.744-106.667 106.667-106.667v128h-106.667zM276.864 874.667c13.483-17.877 21.803-39.872 21.803-64v0-234.667c0-117.824 95.509-213.333 213.333-213.333 117.803 0 213.333 95.509 213.333 213.333v234.667c0 24.128 8.32 46.123 21.803 64h-470.272zM874.667 746.667h-106.667v-128c58.923 0 106.667 47.744 106.667 106.667v21.333zM256 21.333h512c11.797 0 21.333-9.557 21.333-21.333 0-11.797-9.536-21.333-21.333-21.333h-512c-11.797 0-21.333 9.536-21.333 21.333 0 11.776 9.536 21.333 21.333 21.333z" />
<glyph unicode="&#xe929;" glyph-name="Badge" d="M789.163 523.029v-85.76l-74.347-42.901-42.88-74.283h-10.901c0-0.021 0.021-0.064 0.021-0.085v-320c0-0.085-0.043-0.149-0.043-0.235 0.085-5.419-1.899-10.88-6.037-15.019s-9.6-6.123-15.040-6.037c-0.064 0-0.128-0.043-0.213-0.043-6.827 0-12.651 3.413-16.533 8.427l-111.467 111.467-111.467-111.467c-3.883-5.013-9.685-8.427-16.533-8.427-0.085 0-0.149 0.043-0.213 0.043-5.44-0.085-10.901 1.899-15.040 6.037-4.117 4.139-6.123 9.6-6.037 15.019 0 0.085-0.043 0.149-0.043 0.235v320c0 0.021 0.021 0.064 0.021 0.085h-10.816l-42.923 74.283-74.325 42.901v85.76l-42.901 74.283 42.901 74.304v85.824l74.325 42.944 42.923 74.219h85.867l74.24 42.923 74.325-42.923h85.867l42.88-74.219 74.347-42.944v-85.803l42.88-74.325-42.837-74.283zM405.056 320v-269.205l89.387 89.387c0.683 1.003 1.131 2.155 2.027 3.072 4.203 4.181 9.749 6.123 15.253 5.995 5.504 0.128 11.051-1.813 15.253-5.995 0.896-0.917 1.323-2.069 2.027-3.072l89.387-89.387v269.205c0 0.021 0.021 0.064 0.021 0.085h-32.363l-74.325-42.944-74.24 42.944h-32.448c0-0.021 0.021-0.064 0.021-0.085zM746.389 660.224v72.597l-62.891 36.331-36.245 62.784h-72.661l-62.827 36.288-62.784-36.288h-72.661l-36.288-62.763-62.912-36.331v-72.619l-36.288-62.912 36.288-62.869v-72.533l62.912-36.309 36.288-62.827h72.64l62.784-36.288 62.827 36.288h72.64l36.245 62.827 62.912 36.309v72.512l36.267 62.891-36.245 62.912z" />
<glyph unicode="&#xe92a;" glyph-name="Bell" d="M596.928 65.131c0.021-0.405 0.128-0.768 0.128-1.195 0-47.083-38.080-85.269-85.056-85.269s-85.056 38.187-85.056 85.269c0 0.405 0.107 0.768 0.107 1.195-272.021 7.467-341.717 51.776-341.717 105.472 0 16.811 7.339 32.64 25.195 46.805 128.597 143.253 166.805 103.595 166.805 315.797 0 141.483 5.781 271.189 176.171 294.549-3.371 7.808-5.291 16.384-5.291 25.408 0 35.328 28.565 63.957 63.787 63.957s63.787-28.629 63.787-63.957c0-9.024-1.92-17.6-5.291-25.408 170.389-23.36 176.171-153.067 176.171-294.549 0-212.843 38.4-172.224 167.936-317.013 16.939-13.867 24.064-29.248 24.064-45.589 0-53.653-71.531-97.963-341.739-105.472zM512 21.269c23.509 0 42.539 19.093 42.539 42.624 0 0.128-0.043 0.256-0.043 0.384-13.888-0.192-27.648-0.405-42.496-0.405s-28.587 0.213-42.496 0.405c0-0.128-0.043-0.256-0.043-0.384 0-23.531 19.029-42.624 42.539-42.624zM512 874.517c-11.755 0-21.248-9.536-21.248-21.312s9.493-21.333 21.248-21.333 21.269 9.557 21.269 21.333-9.515 21.312-21.269 21.312zM887.573 183.168c0 0-32.469 36.565-85.717 84.992-72.704 66.24-97.856 97.643-97.856 265.045 0 163.499-8.917 256-192 256s-192-92.501-192-256c0-167.424-25.173-198.848-97.92-265.109-52.203-47.552-85.035-84.096-85.035-84.096-9.045-7.189-9.045-11.371-9.045-13.397 0-2.624 4.373-64.064 384-64.064s384 61.44 384 64.064c0 1.707 0 5.696-8.427 12.565z" />
<glyph unicode="&#xe92b;" glyph-name="Share" d="M725.333-42.667h-426.667c-58.923 0-106.667 47.744-106.667 106.667v384c0 58.901 47.744 106.667 106.667 106.667h85.333c11.797 0 21.333-9.557 21.333-21.333s-9.536-21.333-21.333-21.333h-85.333c-35.328 0-64-28.672-64-64v-384c0-35.349 28.672-64 64-64h426.667c35.349 0 64 28.651 64 64v384c0 35.328-28.651 64-64 64h-85.333c-11.797 0-21.333 9.557-21.333 21.333s9.536 21.333 21.333 21.333h85.333c58.923 0 106.667-47.765 106.667-106.667v-384c0-58.923-47.744-106.667-106.667-106.667zM668.459 731.413l-135.125 135.125v-546.539c0-11.797-9.536-21.333-21.333-21.333s-21.333 9.536-21.333 21.333v546.539l-135.125-135.125c-8.128-8.128-21.312-8.128-29.461 0-8.128 8.128-8.128 21.333 0 29.461l168.64 168.64c0.683 1.003 1.131 2.155 2.027 3.072 4.16 4.139 9.621 6.123 15.040 6.037 0.085 0 0.128 0.043 0.213 0.043s0.149-0.043 0.213-0.043c5.461 0.064 10.901-1.899 15.040-6.037 0.875-0.896 1.28-2.005 1.941-2.987l168.725-168.725c8.128-8.128 8.128-21.333 0-29.461-8.149-8.128-21.333-8.128-29.461 0z" />
<glyph unicode="&#xe92c;" glyph-name="Settings" d="M746.667 490.667h-469.333c-117.824 0-213.333 95.509-213.333 213.333s95.509 213.333 213.333 213.333h469.333c117.803 0 213.333-95.509 213.333-213.333s-95.531-213.333-213.333-213.333zM746.667 874.667h-469.333c-94.251 0-170.667-76.416-170.667-170.667s76.416-170.667 170.667-170.667h469.333c94.251 0 170.667 76.416 170.667 170.667s-76.416 170.667-170.667 170.667zM277.333 576c-70.677 0-128 57.301-128 128 0 70.677 57.323 128 128 128s128-57.323 128-128c0-70.699-57.323-128-128-128zM277.333 789.333c-47.125 0-85.333-38.208-85.333-85.333s38.208-85.333 85.333-85.333 85.333 38.208 85.333 85.333c0 47.125-38.208 85.333-85.333 85.333zM277.333 405.333h469.333c117.803 0 213.333-95.531 213.333-213.333s-95.531-213.333-213.333-213.333h-469.333c-117.824 0-213.333 95.531-213.333 213.333s95.509 213.333 213.333 213.333zM277.333 21.333h469.333c94.251 0 170.667 76.416 170.667 170.667s-76.416 170.667-170.667 170.667h-469.333c-94.251 0-170.667-76.416-170.667-170.667s76.416-170.667 170.667-170.667zM746.667 320c70.677 0 128-57.323 128-128s-57.323-128-128-128-128 57.323-128 128 57.323 128 128 128zM746.667 106.667c47.125 0 85.333 38.208 85.333 85.333s-38.208 85.333-85.333 85.333-85.333-38.208-85.333-85.333 38.208-85.333 85.333-85.333z" />
<glyph unicode="&#xe92d;" glyph-name="Calendar" d="M917.333 42.667h-810.667c-47.125 0-85.333 38.208-85.333 85.333v640c0 47.125 38.208 85.333 85.333 85.333h810.667c47.125 0 85.333-38.208 85.333-85.333v-640c0-47.125-38.208-85.333-85.333-85.333zM960 768c0 23.552-19.115 42.667-42.667 42.667h-810.667c-23.552 0-42.667-19.115-42.667-42.667v-128h896v128zM960 597.333h-896v-469.333c0-23.552 19.115-42.667 42.667-42.667h810.667c23.552 0 42.667 19.115 42.667 42.667v469.333zM874.667 298.667h-42.667c-11.776 0-21.333 9.536-21.333 21.333v42.667c0 11.776 9.557 21.333 21.333 21.333h42.667c11.797 0 21.333-9.557 21.333-21.333v-42.667c0-11.797-9.536-21.333-21.333-21.333zM874.667 448h-42.667c-11.776 0-21.333 9.536-21.333 21.333v42.667c0 11.797 9.557 21.333 21.333 21.333h42.667c11.797 0 21.333-9.536 21.333-21.333v-42.667c0-11.797-9.536-21.333-21.333-21.333zM704 298.667h-42.667c-11.776 0-21.333 9.536-21.333 21.333v42.667c0 11.776 9.557 21.333 21.333 21.333h42.667c11.797 0 21.333-9.557 21.333-21.333v-42.667c0-11.797-9.536-21.333-21.333-21.333zM704 448h-42.667c-11.776 0-21.333 9.536-21.333 21.333v42.667c0 11.797 9.557 21.333 21.333 21.333h42.667c11.797 0 21.333-9.536 21.333-21.333v-42.667c0-11.797-9.536-21.333-21.333-21.333zM533.333 298.667h-42.667c-11.797 0-21.333 9.536-21.333 21.333v42.667c0 11.776 9.536 21.333 21.333 21.333h42.667c11.797 0 21.333-9.557 21.333-21.333v-42.667c0-11.797-9.536-21.333-21.333-21.333zM533.333 448h-42.667c-11.797 0-21.333 9.536-21.333 21.333v42.667c0 11.797 9.536 21.333 21.333 21.333h42.667c11.797 0 21.333-9.536 21.333-21.333v-42.667c0-11.797-9.536-21.333-21.333-21.333zM362.667 149.333h-42.667c-11.797 0-21.333 9.536-21.333 21.333v42.667c0 11.797 9.536 21.333 21.333 21.333h42.667c11.797 0 21.333-9.536 21.333-21.333v-42.667c0-11.797-9.536-21.333-21.333-21.333zM362.667 298.667h-42.667c-11.797 0-21.333 9.536-21.333 21.333v42.667c0 11.776 9.536 21.333 21.333 21.333h42.667c11.797 0 21.333-9.557 21.333-21.333v-42.667c0-11.797-9.536-21.333-21.333-21.333zM362.667 448h-42.667c-11.797 0-21.333 9.536-21.333 21.333v42.667c0 11.797 9.536 21.333 21.333 21.333h42.667c11.797 0 21.333-9.536 21.333-21.333v-42.667c0-11.797-9.536-21.333-21.333-21.333zM192 149.333h-42.667c-11.797 0-21.333 9.536-21.333 21.333v42.667c0 11.797 9.536 21.333 21.333 21.333h42.667c11.797 0 21.333-9.536 21.333-21.333v-42.667c0-11.797-9.536-21.333-21.333-21.333zM192 298.667h-42.667c-11.797 0-21.333 9.536-21.333 21.333v42.667c0 11.776 9.536 21.333 21.333 21.333h42.667c11.797 0 21.333-9.557 21.333-21.333v-42.667c0-11.797-9.536-21.333-21.333-21.333zM490.667 234.667h42.667c11.797 0 21.333-9.536 21.333-21.333v-42.667c0-11.797-9.536-21.333-21.333-21.333h-42.667c-11.797 0-21.333 9.536-21.333 21.333v42.667c0 11.797 9.536 21.333 21.333 21.333z" />
<glyph unicode="&#xe92e;" glyph-name="Explore" d="M512 0c-247.424 0-448 200.576-448 448s200.576 448 448 448 448-200.576 448-448-200.576-448-448-448zM512 853.333c-223.851 0-405.333-181.483-405.333-405.333s181.483-405.333 405.333-405.333 405.333 181.483 405.333 405.333-181.483 405.333-405.333 405.333zM853.333 426.667h-21.333c-11.797 0-21.333 9.536-21.333 21.333s9.536 21.333 21.333 21.333h21.333c11.797 0 21.333-9.536 21.333-21.333s-9.536-21.333-21.333-21.333zM724.885 251.648c-0.683-4.011-2.453-7.829-5.568-10.965-6.571-6.549-16.256-7.573-24.085-3.669l1.237-1.259 0.171-0.171c-3.456 1.429-6.528 2.773-9.899 4.16-110.699 46.123-175.211 82.261-210.496 105.344-28.011 18.304-37.867 28.437-38.272 28.864-0.96 0.917-53.077 51.456-138.347 258.667h0.021c0 0 0 0-0.021 0l1.429-1.429c-0.213 0.427-0.256 0.896-0.427 1.323-1.963 4.523-2.176 9.451-0.811 14.101 0.939 3.136 2.368 6.187 4.885 8.683 6.379 6.379 15.744 7.467 23.488 3.861 0.192-0.085 0.427-0.107 0.597-0.213l-0.491 0.533-0.917 0.896c0 0 0 0 0.021 0h-0.021c207.211-85.269 257.749-137.387 258.667-138.347 0.96-0.917 53.077-51.477 138.347-258.667l-0.021 0.021c0.021 0 0.021-0.021 0.021-0.021l-0.939 0.939-0.491 0.469c0.491-1.003 0.683-2.069 1.024-3.115 1.045-3.264 1.472-6.656 0.896-10.005zM555.648 492.096c-0.448 0.448-43.008 41.109-195.989 108.224 67.115-152.981 107.84-195.563 108.693-196.437 0.448-0.448 43.008-41.131 195.989-108.224-67.115 153.003-107.84 195.563-108.693 196.437zM512 469.333c11.797 0 21.333-9.536 21.333-21.333s-9.536-21.333-21.333-21.333-21.333 9.536-21.333 21.333 9.536 21.333 21.333 21.333zM512 746.667c-11.797 0-21.333 9.557-21.333 21.333v21.333c0 11.776 9.536 21.333 21.333 21.333s21.333-9.557 21.333-21.333v-21.333c0-11.776-9.536-21.333-21.333-21.333zM512 149.333c11.797 0 21.333-9.536 21.333-21.333v-21.333c0-11.797-9.536-21.333-21.333-21.333s-21.333 9.536-21.333 21.333v21.333c0 11.797 9.536 21.333 21.333 21.333zM192 426.667h-21.333c-11.797 0-21.333 9.536-21.333 21.333s9.536 21.333 21.333 21.333h21.333c11.797 0 21.333-9.536 21.333-21.333s-9.536-21.333-21.333-21.333z" />
<glyph unicode="&#xe92f;" glyph-name="Dashboard" d="M957.867 256.619c0-0.235 0.128-0.405 0.128-0.619 0-0.107-0.064-0.213-0.064-0.341 0.021-0.107 0.064-0.213 0.064-0.341 0-11.776-9.536-21.333-21.333-21.333 0.32 0.021-189.995 0.683-189.995 0.683-11.797 0-21.333 9.557-21.333 21.333 0 11.797 9.536 21.333 21.333 21.333h169.515c0.405 7.125 1.152 14.123 1.152 21.333 0 223.851-181.483 405.333-405.333 405.333s-405.333-181.483-405.333-405.333c0-7.211 0.747-14.208 1.131-21.333h169.536c11.797 0 21.333-9.536 21.333-21.333 0-11.776-9.536-21.333-21.333-21.333 0 0-190.293-0.661-189.995-0.661-11.797 0-21.333 9.557-21.333 21.333 0 0.128 0.043 0.235 0.064 0.341 0 0.128-0.064 0.235-0.064 0.341 0 0.235 0.128 0.405 0.128 0.597-1.301 13.867-2.133 27.861-2.133 42.048 0 247.445 200.576 448 448 448s448-200.555 448-448c0-14.187-0.832-28.181-2.133-42.048zM373.824 509.269c8.384 4.608 18.453 3.072 25.365-2.837l-1.067 1.771c187.179-136.96 225.643-199.957 226.347-201.131 30.571-50.283 12.395-114.581-40.512-143.595s-120.597-11.797-151.147 38.485c-0.747 1.131-38.912 64.299-70.208 286.763l1.088-1.749c-1.899 8.619 1.771 17.707 10.133 22.293zM471.168 222.955c11.84-19.435 33.899-31.531 57.579-31.531 11.563 0 23.019 2.923 33.109 8.469 15.36 8.427 26.347 21.995 30.933 38.272 4.608 16.299 2.24 33.28-6.464 47.616-0.363 0.533-33.536 50.901-171.989 156.757 27.328-166.72 56.597-219.157 56.832-219.584z" />
</font>
</defs>
</svg>
